&title=Flamenco House
&artist=Lapix
&first=0
&des=Shall We Dance?
&lv_5=13+
&lv_6=^ ^
&inote_5=(130)
{1},
{4}4-2[8:1],5,6-4[8:1],7,
8-6[8:1],1,2-8[8:1],3,
4-7[8:1],3,2-5[8:1],1,
8-3[8:1],7,6>3[8:1],1h[128:1],
4-1[8:1]/3h[8:1],2h[8:1],8-3[8:1]/1h[8:1],2h[8:1],
5-8[8:1]/6h[8:1],7h[8:1],1-6[8:1]/8h[8:1],7h[8:1],
{16}
4,4,6,6,3,3,5,5,2,2,4,4,6,6,8,8,
{32}1,2,3,4,5,6,7,8,1,2,3,4,5,6,7,8,1v6[8:1],2,3,4,5,6,7,8,,,,,,,,,
{16}
3h[8:1]/4,,,,6>3[8:1]/5h[16:1],,,,1h[128:1],,,2,,,8h[16:1],,
1h[8:1],,,,8h[8:1]/2h[8:1],,,,3h[16:1],,5h[16:1],,4h[8:1],,,,
2h[8:1]/1,,,,6>3[8:1]/7h[16:1],,,,1h[128:1],,,1,,,7h[16:1],,
3,3,5,5,4-2[8:1]*-6[8:1],4,6,6,4w8[8:1],,,,4b,,,,
34,,2,,6V48[4:1],4,5,3,7h[8:3],,,,,,{24}2,3,4,{16}
56,,3,5-2[8:1],,6,,7-4[8:1],,8,,7,3,,1,,
65,,7,,3V51[4:1],5,4,6,3h[8:3],,,,,,{24}7,6,5,{16}
34,,6,1-5[8:1],,5-8[8:1],,3,3,,1,1,,,46,,
35,,2,4-2[12:1],,6,,8-4[8:1],,7,,8-6[12:1],,1,,3-6[8:1],
3,,7,3-8[8:1],,1,,5,5,,7,4,,,65,,
1h[8:1]/8,,,7,1,4,3,4,2,5,4,5,1h[8:1],,8,2,
7,1,6,5,,34,,2,4,3,5,4,6,5,7,,
3-8[8:1]/8-5[8:1],,,,8-4[8:1]/3,,,,6-1[8:1]/8-3[8:1],,,,8-4[8:1]/6,,,,
8-5[8:1]/4-1[8:1],,,,48,,,,3,5,2,4,8,6,2,,
4-1[8:1],,8-5[8:1],,4,,8,,2,2,4,4,5,5,7,7,
1b-6[8:1],,,,2b-5[8:1],,,,3b>8[8:1]*<6[8:1],,,,,,,,
{32}2b<7[8:1]/6b,35,{16}4,,,5p1[8:1],,6,,8q4[8:1],,7,,5qq3[8:1],,7,,
5/8q4[8:1],,,,5p1[8:1],,6,,8q4[8:1],,7,,5>2[8:1],,6,,
5b/8bp3[8:1],,,,1q5[8:1],,2,,6p2[8:1],,7,,1>4[8:1],,8,,
17,,6,6,3,5,{24}4,5,4,{16}6h[8:1],,3,5,2h[8:1],,8,,
{32}7b>2[8:1]/3b,64,{16}5,,,4q8[8:1],,3,,1p5[8:1],,2,,4pp6[8:1],,2,,
4/1p5[8:1],,,,4q8[8:1],,3,,1p5[8:1],,2,,4<7[8:1],,3,,
4b/1bq6[8:1],,,,8p4[8:1],,7,,3q7[8:1],,2,,8<5[8:1],,1,,
8b/1b-5[8:1],,,,2b-6[8:1],,,,3b>8[8:1]*<6[8:1],,,,3b,,,,
{32}5b<8[8:1]/1b,2,{16}3,,,1qq7[8:1]/5,,3,3,1>4[8:1],2,2,,8pp2[8:1]/1,,6,,
7<4[8:1]/8,,,,1p5[8:1]/7,,2,2,1>4[8:1],3,3,,8,7,6,5,
4b>1[8:1]/3b,,,,8pp2[8:1]/4,,7,7,8<5[8:1],6,6,,1>4[8:1]/8,,2,,
71,,6,6,5,7,{24}4,5,4,{16}7h[8:1],,1,6,3h[8:1],,7,,
{32}4b>1[8:1]/8b,7,{16}6,,,8pp2[8:1]/4,,6,6,8<5[8:1],7,7,,1qq7[8:1]/8,,3,,
2>5[8:1]/1,,,,8q4[8:1]/2,,7,7,8<5[8:1],6,6,,3,2,1,,
6,6,5,5,4,4,3,3,1,1,2,2,5,5,4,4,
{32}8,7,6,5,4,3,8,1,2,3,4,5,8,7,6,5,4h[4:1]/1-5[8:1],,,,,,,,,,,,,,,,
{16}
5s1[4:2]/1h[4:1],,,,,,,,2,,,,3,,,,
8z4[4:2]/4h[4:1],,,,,,,,3,,,,2,,,,
1v3[4:1]/8,,,,7,,,,5v7[4:1],,,,3,,,,
1v6[4:1],,,,3,,,,5v2[4:1],,,,7,,,,
8,,7,1,,2,,34,,5,,6,5,,6,,
35,,4,6,,35,,46,,6,5,6,4h[8:1]/7h[8:1],,,,
3,,2,1,,8,,65,,4,,3,2h[8:1]/4h[8:1],,,,
64,,5,3,,64,,53,,17,,46,,28,28,,
7-3[8:1]/3-8[8:1],,,,3-6[8:1]/7,,,,5-1[8:1]/3-7[8:1],,,,5-8[8:1]/3,,,,
5-1[8:1]/2-5[8:1],,,,25,,,,4,5,2,1,4,6,8,,
3-8[8:1],,7-4[8:1],,3,,7,,2,2,4,4,5,5,7,7,
1b-5[8:1],,,,2b-6[8:1],,,,3b>7[8:1]*<7[8:1],,,,,,,,
{32}2bq6[8:1]/5b,36,{16}47,,,5p7[8:1],,7,,8>4[8:1],,6,,5qq3[8:1],,7,,
5/8q4[8:1],,,,5qq3[8:1],,7,,6p1[8:1],,7,,8q4[8:1],,7,,
8b/5b>1[8:1],,,,8pp2[8:1],,6,,4>8[8:1],,7,,1q5[8:1],,7,,
16,,7,7,5,8,{24}5,6,4,{16}5<1[8:1],,2,6,3h[8:1],,,,
{32}7bp3[8:1]/4b,63,{16}52,,,4q2[8:1],,2,,1<5[8:1],,3,,4pp6[8:1],,2,,
4/1p5[8:1],,,,4pp6[8:1],,2,,3q8[8:1],,2,,1p5[8:1],,2,,
1b/4b<8[8:1],,,,1qq7[8:1],,3,,5<1[8:1],,2,,8p4[8:1],,2,,
8b/1bq6[8:1],,,,2bp5[8:1],,,,3b>7[8:1]*<7[8:1],,,,3b,,,,
{32}5bp1[8:1]/1b,26,{16}37,,,8>3[8:1]/5,,6,6,8<4[8:1],5,5,,1pp3[8:1]/8,,2,,
1qq7[8:1]/3,,,,2>5[8:1]/1,,3,3,2<7[8:1],6,6,,7,6,5,4,
3b/1b>4[8:1],,,,8pp2[8:1]/1,,7,7,8>4[8:1],6,6,,5p1[8:1]/8,,6,,
57,,8,8,4,7,{24}3,5,4,{16}6h[8:1],,2,8,5h[8:1],,1,,
{32}4bq8[8:1]/8b,73,{16}62,,,1<6[8:1]/4,,3,3,1>5[8:1],4,4,,8qq6[8:1]/1,,7,,
8pp2[8:1]/6,,,,7<4[8:1]/8,,6,6,7>2[8:1],3,3,,2,3,4,5,
7,7,6,6,4,4,3,3,1,1,2,2,6,6,5,5,
{32}1,8,7,6,5,4,8,1,2,3,4,5,1,8,7,6,5h[4:1]/1-5[8:1],,,,,,,,,,,,,,,,
{4}
2-5[8:1],6-3[8:1],2-6[8:1],7-2[8:1],
4-1[8:1],8-4[8:1],3-8[8:1],7-3[8:1],
1-5[8:1],6-1[8:1],2-6[8:1],7-2[8:1],
5-8[8:1],1-5[8:1],3<6[8:1],1h[128:1],
{8}
2-5[8:1],1,6-3[8:1],7,2-6[8:1],1,7-2[8:1],8,
4-1[8:1],3,8-4[8:1],7,3-8[8:1],2,7,6,
{16}
3,4,1,6,3,8,5,6,2,1,4,5,8,7,5,6,
{32}2,3,4,5,6,7,8,1,
2/5,3,4,5,6,7,8,1,
2V84[4:1]/7V51[4:1],3,4,5,6,7,8,1,
