&title=少女S
&artist=SCANDAL
&first=0
&des=TruffleShroom
&lv_5=12
&des_5=TruffleShroom
&demo_seek=35.3
&demo_len=21.1
&inote_5=
(136){4},3/4,{2}2h[4:1]/7h[4:1],
{8}3,3h[2:1],,4,,6,5,4,
5,6,7/8,6/5,{2}4h[4:1],
{16}1,2,{8}3,,1/8,,7h[8:1],8h[8:1],1h[8:1],
,2,3,3,{16},,,5/3h[4:1],,,,6,
,7,,6h[8:1],,,,6h[8:1],,,,,{8}8,8,
,7h[4:1],{4}6h[8:1],4/5h[4:1],{8}4,5,
{16},,7,8,{8}1,2,{4}1h[16:3],{16}1,1,,,,3,
4,5b,,,,7h[8:1]/8h[8:1],,,,6,,,,6h[8:1],
,3,,3,,1h[8:1],,8,,7/2h[4:1],,,,5,,6,
,5,,5,,4h[8:1]/3h[8:1],,,,,,3bx,,,,,,,,6bx,
,,,,,,,8bx,,,,,,,,2bx/3bx,
,,,3>6[4:3],,,,6,,6,,7h[8:1],
,,,7,,6,,,,6h[4:1],,7,,5,,5,
,3h[4:1]/1h[8:1],,,,1,,,,4,,5h[4:1],,,,6h[8:1],
,,,6,,5/3,,,,4,,4,,1h[8:1],,2/3h[8:1],
,2h[8:1],,7,,7/5,,6,,,,6,,,,8bh[4:7],
,1bh[4:1],,,,,,,,2,,3,,2,,1,
,,,2,,2,,,,3h[8:1],{1},{4},{16},,,8-4[0.5515##0.4412],
,4-2[0.7721##0.3309],,2-6[0.9926##0.3309],,,,,,,,,,,,,,7b/2b,
,,,5h[8:3],,,,4h[4:1],,,,,,4/5h[8:1],
,4,,8h[4:1]/7h[8:3],,,,,,,,,,3,
,3,,4,,4,,,{8}3h[8:1],,,3/1,
2,,,5-8b[1.3235##0.3309],,5-1b[0.8824##0.3309],,5-2b[16:3],
,5b,,1xh[4:1],3,3,3,4,
{4}5h[8:1],6/4,{8}8,1,,3h[8:1],
,4,{4}2/3h[4:1],2h[8:1],{8}3,4h[8:1],
5,,,7>4[4:1],,7,,5v2<7[4:1],
,5,7,6h[8:1],,2/4,4/6,5h[8:1],
4,5,4,7h[8:1],,3bh[4:5],{16},,,,,,,,,5h[16:3],
,,,,{8}6,7,5b,
6>1[0.6618##0.4412],1<6[0.8824##0.3309],{4}6-2[1.1029##0.2206],{8},,,,,2h[4:1]/7h[4:1],
,,,1h[8:1],2h[8:1],3h[8:1],
4,3/4,{4}3h[4:1],{8},8/1,,7h[8:1],
{4}6h[2:1],7,{8},7,8,1,
1,,,3-7b[1.2132##0.2206],,3-6b[0.7721##0.2206],,3-8b[0.3309##0.2206],
{16},3bx,,,,5,,4/6,,2/8,,4h[8:1],,,,4,
,3,,5h[16:5]/4h[16:7],,,,,,,,,,,{8}3,
4,1h[8:1]/2h[8:1],{16},,,,7x,6x,5x,6x,{8}7x,7,
7,,,7V52[16:3],,7/1,,1q7[16:3],
,8/1,{4}8h[8:1],{8}7,6,7,8,
7h[4:1],6h[8:1],,3h[8:7],{2}2h[8:1],
{16},,,,,,,1,,2,,1,,1,,2,
,1,,8,,7b,,,,6,,,,8h[8:1]/2h[8:1],,,,,,8/1h[4:1],
,,,8h[8:1],,7h[8:1],,6xh[8:1],,7xh[8:1],,8xh[8:1],
,7xh[8:1],,6xh[8:1],,3bx,,3,,4,,4,,3,,3,
,4/6,,4/6,,5b,,,,4h[8:1],,,,4,3,2,
,2,,2,,1h[8:1],,2h[8:1],,3xh[8:1],,2xh[8:1],,1xh[8:1],,2xh[8:1],
,3xh[8:1],,,,5b/4b,,5,,4/5,,4,,5/4,,5,
,4/5,,4,,5/4,
E
