&title=黎明スケッチブック
&artist=アメツチ絵日記
&first=-0.37
&des=FIONAL
&lv_5=13+
&inote_5=(238)
{4},,,,
{8}5,4,8,3,6,1,7h[8:1],,4-1[8:1],4,,,7x,,1,6,4,7,3,3,8,8,1,7,3x,5,1,8,4,7,2-5[8:1],,8-4[8:1],,1-6[8:1],,7x,,3,3,5,2,
{12}8x,7x,6x,1x,2x,3x,7x,6x,5x,
{8}1b,,5/6,5/6,4/7,,2-5[8:1],,8-4[8:1]/2,,1/8,,2/6,,3/4,3/4,5/2,,7-4[8:1],,1-5[8:1]/7,,8/1,,4/6,4h[16:1]/6h[16:1],,8/2,8h[16:1]/2h[16:1],,3/4,3h[16:1]/4h[16:1],,7/8,7h[16:1]/8h[16:1],,1s5[4:1]/8,,,,7-3[8:1]b,,,,,,
{16}B7,B6,B5,B4,1,,8,,2,,7,,2,,5,,1,,8,,2,,2,,5,,6,,1,,8,,2,,7,,3,,6,,1x/5x,,1x,2,3,4,5,,8x,1,2,3,4-7[8:1],,,,2-5[8:1],,,,8-3[8:1],,8x,,4b,,,,7,,8,,1,,2,,
{12}6x,5,4,3,2,1,8,7,6,1xb-3-5-7-1>1[2:1],,,,,,,,,
{4}Cf,,,B1,,,B2,,,B3,,,C/B4,,,C/B5,,,C/B6,,,C/B7,,,
{8}8h[2:1],,,,6-2[8:1],,6,,,,3,2,1h[2:1],,,4-8[8:1],,,,,,,7,6,5>8[8:3],,,8-5-2[8:3],,,2<5[8:3],,,,2,3,4h[2:1],,,8-3-7[4:1],,,,,,,,,
{8}1-4[8:1],,1-6[8:1],,1,,8<5[8:1]*>3[8:1],,8,,2-5[8:1],,8/2,,1-5[8:1],8,1/7<4[8:1],,7x,,3,4,3,,8-5[8:1],,8-3[8:1],,8,,1>4[8:1]*<6[8:1],,1,,7,,1>5[4:1],,5q1[8:1],5,,,8x,,6,5,6,,1xb-5[1:2],,,,,,,,,,,,1w5[2:1]b,,,,,,,,,,,,
{8}3/4,3h[16:1]/4h[16:1],,1bh[8:1]/6bh[8:1],,,6/5,6h[16:1]/5h[16:1],,8bh[8:1]/3bh[8:1],,,2-6[8:1],,1-5[8:1],,8-4[8:1],,7-3[8:1],,B2,,E2,,1xh[4:1],,7h[4:1],,5h[1:1],,B3,,B2,,B1,,Cf,,,,,,,,,,B2/B3/E3,,
{16}7<4[8:1]/4,,,,7/4-8[8:1],3x,2x,1x,4,,,,1-6[8:1]*-4[8:1],,,,1,,,,2>5[8:1],,,,2/8,,,,,,6,,7,,8,,1<3[4:1]/4,,,,,,,,1,,,,7x/2x>6[8:3],,,,,,6v4[8:1],,,,,,8<4[4:1],,,,4p8[8:1],,,,2,,,,1-5[8:1],,,,7<4[8:1]/1,,,,7/3-1-4-8[4:1],,,,,,,,,,,,,,,,2>5[8:1]/5,,,,2/5-1[8:1],6x,7x,8x,5,,,,8-3[8:1]*-5[8:1],,,,8,,,,2/6,,,,1bh[8:1]/6b,5,4,3,2,1,8xb/4xb,,,,,,8bh[8:1]/2b>8[4:1],,,,,,,,,,,,p4x/7x<3[8:3],,,,,,3v5[8:1],,,,,,1>5[4:1],,,,5q1[8:1],,,,7,,,,8-4[8:1],,,,2>5[8:1]/8,,,,2/6-8-5-1[4:1],,,,,,,,,,,,7,,,,2/8h[8:1],3,4,5,6,7,8,1,2x/6x,,,,7-4[8:1],,,,3-8[8:1]/7x,,,,3x,,,,6/1h[8:1],5,4,3,2,1,8,7,6x/2x,,,,1>5[4:1],,,,5xq1[4:1],,,,1xq5[4:1],,,,5x<4[16:7]b,,,,,,,,,,,,
{16}5x,6x,7x,8x,1x,2x,3x,4x,5x,6x,7x,8x,1b/Cf,,,,
{8}6h[4:1],,8h[4:1],,1h[4:1],,3h[4:1],,5,,4/5,4h[16:1]/5h[16:1],,6/8,6h[16:1]/8h[16:1],,3/1,3h[16:1]/1h[16:1],,4/6,4h[16:1]/6h[16:1],,3-8-6-1[2:1]/5,,,,,,B5,,6,5,4,3,
{8}2h[4:3]/8,,,,,,4h[2:1],,,,5,,7h[2:1],,,,8,,2,1,2,7,5,7,4,,8,1,7,8,5,,3,4,2,4,1h[8:3],,,8h[8:3],,,6h[2:1],,,,5,,4,5,2,1,3,8,1,,1,,6,5,
{16}E1,B8,B7,E7,E5,B4,B3,E3,6x,7x,8x,1,3h[16:1],,,7h[16:3],,,8h[4:1],,,,1,,
{8}3h[8:3],,,4h[4:1],,5,6h[8:3],,,1h[4:1],,,1xb-6[8:1]*-4[8:1],,,,,,2-4<6[4:1],,6-8>2[4:1]b,,C,,
{16}7x,6,5,4,1x,2,3,4,8x,7,6,5,1,,,,8x/2x,3,4,5,7-4[8:1],,5,,7x,,2-5[8:1],,4,,2x,,8x,7,6,5,3x,2x,1x,,6x,7x,8x,,4x,3x,2x,,8h[4:1],,7x,6x,5x,,7,,1h[4:1],,2x,3,4,5,6,7,2x<7[8:1],3,4,5,,,,,1h[8:1],,5h[8:1],,1h[8:1],,5h[8:1],,1h[8:1],,5h[8:1],,2x,3x,4x,5x,6x,7x,8x,1x,B6,B5,B4,B3,B2,B1,B8,B7,6xh[16:3],,,5h[16:3],,,4h[8:1],,3,,8,,2x,3,4,5,6,7,8,1,
{12}6x,5x,4x,2x,1x,8x,6x,7x,8x,
{16}3x,4,5,6,8x,1,2,3,1x,2,3,4,6h[4:1],,,,7h[4:1],,,,8h[4:1],,,,2x,3,4,5,
{16}8x>3[8:1],7x,6x,,,,,,
{12}7x,6,5,4,3,2,1,8,7,2x,3,4,5,6,7,8,1x/5x,2x/6x,3xb-1-7v1[4:10]/7xb-5-3v5[4:10],,,,,,,,,,,,,,,,,,,,,,,,,,,,,,,,,,,,
{4}B2,,,B3,,,B4,,,B5,,,3>2-8[8:1]/4,,,6<7-1[8:1]/5,,,3h[8:1]b/6h[8:1]b,
{8},7,2,8,1>7[4:1]b,,,,C,,
{16}3x/7x,8,1,2,3,4,1x/5x,,,,,,1>5[4:1],,,,5q1[8:1],,,,7,,,,8-4[8:1],,,,2>5[8:1]/8,,,,2/6-8-5-1[4:1],,,,,,,,,,,,2,,,,7/1h[8:1],6,5,4,3,2,1,8,7x/3x,,,,2-5[8:1],,,,6-1[8:1]/2x,,,,6x,,,,3/8h[8:1],4,5,6,7,8,1,2,3x/7x,,,,8-5[8:1]*-3[8:1],,,,8x,,,,2/6,,,,1,8,1,8,1,8,1,8,1,8,1,8,
{16}1x,2,3,4,5,6,7,8,1b/Cf,,,,,,,,
{8}6h[4:1],,8h[4:1],,1h[4:1],,3h[4:1],,5,,
{8}2-5[8:1],,2/8-4[8:1]b,,1/8,,7-4[8:1],,7/1-5[8:1]b,,8/1,,3,4,3-8[8:1]b,,3/5,,7,8,7-4[8:1]b,,1/7,,2/8,2h[16:1]/8h[16:1],,1/7,1h[16:1]/7h[16:1],,6/4,6h[16:1]/4h[16:1],,3/5,3h[16:1]/5h[16:1],,1b>8[4:3]/8b,,,,,,Ch[4:1]f,,,,,,
{12}7x-5v4-2-7[4:11]/2x-4v5-7-2[4:11],
