&title=Macrocosmic Modulation
&artist=JAKAZiD
&first=-0.817
&lv_5=14
&des_5=AINStA
&inote_5=
(85){4},{16},,,,8/1h[16:7],,,D1,{32}B8,,,B6,,,{16}5h[2:1],
,,,,,,,2,{32}1,8,{16}7/4,,,,,,,{4}E4,
E2,{16}8/1h[16:7],,,D1,{32}B1,,,B3,,,{16}4h[2:1],
,,,,,,,3,{32}5,6,{16}7/4,,,,,,,E6,
,,E8,,,,,1/8h[16:7],,,D1,{32}B1,,,B3,,,{16}4qq3<6[8:3],
,,,,,,,7,{32}8,1,{16}2,,,,,,,{4}E4,
E2,{16}8/1h[16:7],,,D1,{32}B8,,,B6,,,{16}5>6[8:3],
,,,,,,,5,{32}4,3,{16}2,,,,,,,{4}B7/B2,
{32}3,7,,4,,4,{16}6,{8}5b/2b,{16}3,{32}3,4,{16}3,3h[16:1],1,{32}1,2,
{16}1,1h[16:1],{48}2,3,{96}4,,,,,7,,6,,5,,,,,{48}2,3,4,{96},,,{32}7,,,{8}1/5,{16}2,3/6,7h[16:1],{64}E4,E5,{32}D5,,,{16}3,
2h[8:1],{64}E6,E5,{32}D5,,,{16}2,6,{64}7h[16:1]/E4,E5,{32}D5,,,,,{8}8x/2x,{16}3,{32}3,1,{16}3,3,{32}8-4[12:1],2,{16}8h[4:1],
{32}1,{64}7,6,5,4,3,2,{32}1,,,7h[16:1],,,{16}6h[16:1],{32},5h[16:1],,,{8}4b,{16}5,6/3,7h[8:1],{64}E4,E5,{32}D5,,,{16}3,
2h[16:1],{64}E6,E5,{32}D5,{16}2v3-5[8:1],{32}5,3,{16}7,7,,,{8}7b,{16}6,{32}6,5,{16}6,6h[16:1],8,{32}8,7,
{16}8,8h[16:1],{48}7,6,{96}5,,,,,2,,3,,4,,,,,{48}7,6,5,{96},,,{32}2,,,{8}4x/8x,{16}7,6/3,2h[8:1],{64}E6,E5,{32}D5,,,{16}6,
7h[8:1],{64}E4,E5,{32}D5,,,{16}7,3,{64}2h[16:1]/E6,E5,{32}D5,,,,,{16}3/5,4,5/2,4,6/3,5,7/3,5,
6/2,4,6/1,4,7-4-7[16:7]/2-5-2[16:7],5,2/8,5,{32},,,,,,,,,,,,,,,,,2,
{16}5,3,{32}3,6,,5-2[32:1],,4,{16}6,6,{8}5x/7x,{16}7,{32}5,6,,6,{16}4h[16:1],7,{32}4,5,
,5,,,7/4,,,6,5-2[16:1],6,,6,{16}4h[16:1],7h[16:1],{8}5x,{32}7-4[16:1],,,8,,8,,,1-6[16:1],,,2,
,2,,,3-8[16:1],,,4,,4-7[16:1],,,{8}5,4x/2x,{16}2,{32}4,3,,3,{16}5h[16:1],2,{32}5,4,
,4,,,2/5,,,3,4-7[16:1],3,,3,{16}5h[16:1],2h[16:1],{8}4x,{32}2-5[16:1],,,1,,1,,,8-5[16:1],,,7,
,4x,{16}3x,8x,{32}3x,2x,,6w2[32:1],3,5,{16}4,7,{8}C,{32}8bx/4bx,,,7,5,6,{16}4h[32:3],5,{32}5,4,
,6,,,7/4,,,7,5-1[16:1],6,4,5,{16}3,6/2,{8}5x,{32}7x-4[16:1],2,,8,,8,,,1x-6[16:1],,,2,
,2,,,3x,,,4,,,5,5,2-5[16:1],5,3,6h[32:3],,,,,2b,,,6,5,6,{16}4h[32:3],{32}7,,,5,
,6,,,7/4,,,6,5-2[16:1],6,,6,{16}4h[16:1],7h[16:1],{8}5x,{32}7-4[16:1],3,,8,,8,,,1-4[16:1],,,2,
,5,{16}6,{32}1,,,6h[16:1],,,,4,{16}5,5x/4x,{8}6b/2b<7[16:1],{32}3,4,,2x,{8}5,{32}6,4,,5/2<7[16:1],
,,,,3,4,,2,{8}5,{32}6,4,,2<7[16:1]/6-4[16:1],,,,,3,4,,2/6,,,,,4/6,,,5/2<7[16:1],
,,,,3-5[16:1],4,,2,,,{16}6h[16:3],{8}3,C,{16}7,{32}4,6,{16}3,5,5,{32}3,6,
,4,,4,,5,,3-5[16:1],,6,,4,7,2,6,3,,,,,5,6,4,6h[32:3],,,{16}3,{32}2,5,4,6h[32:1],
,6h[32:1],,4,5,,,3h[32:1],5-2[16:1],3h[32:1],,5,{16}4,6,{32}E5,7bx,,,{16}7,{32}3,6,{16}4,4,6h[16:1],{32}2,5-1[16:1],
{8}4,{32}7,3,,5,{8}4h[16:1],{32}3,,,5-1[16:1]/2-4[16:1],,,,7,3,,,5/2,,,,,{16}3,{32}6,5-1[16:1],
,,,7,3-5[16:1],,,5,,,{16}2,{8}3/7h[32:3],C,{32}2,5,3,6,4,6,{16}4x,4x,{32}6,3,
5,3,{16}5x,{32}5x,4,,6-4[16:1],,3,,5,2,7,3,6x,,,,,4,3,5,2xh[32:3],,,,,4,3,5,2xh[32:1],
,2xh[32:1],,,4,3,5,2x,{8}4x-7[16:1]*-1[16:1],5xh[16:1]/3xh[16:1],4bx,{32}C/B2/B6,,,5/1,,6/2,,3,E7/D7,,,5/8,
,4/7,,6,D3/E3,,,4/1,,5/2,,3,E7/D7,,,5/8,,4/7,,6,D3/E3,,,4/1,,5/2,,3,E7/D7,,,5/8,
,4/7,,6,D3/E3,,,4/1,,,{16}3/7,{32}4,6,,4,{8}5,{32}B2/C/B6,,,1/5,,1/5,,6,3h,,,8/4,
,8/4,,3,6h,,,1/5,,1/5,,6,3h,,,8/4,,8/4,,3,6h,,,1/5,,1/5,,6,3h,,,8,
5,6,4,5,{16}3,{32}5,4h[32:3],,,{16}5,E5,B6/B3,{8}7xh[16:1]/2xh[16:1],{32}2/7,,,5/3,,6/4,,3,{8}8h[32:3],
{32}3,8,3,8,1,8,1,6,1,6,{16}1,5,3,{8}7h[16:1]/2h[16:1],{32}1,8,1,8,1,8,{16}1,{32}2h[16:1],,,7,
2,7,2,7,3h[16:1],,,6,3,6,3,6,{16}4h[16:1],5h[32:1],{32}4,5,4,5,2,5,2,5,2,7,2,7,4,,,6/3,
,6/3,,2,{8}5h[32:3],{32}4,6,4,7,4,8,4,8x-3[16:1]/4x-7[16:1],,,,,2/6,,,8x/4x,,,,,6/2,,,1x-6[16:1]/5x-2[16:1],
,6x/2x,,,7/3,,,1x/5x,,,,,{8}7b/3b,5/4h[8:1],{16}7,6,{32}6,5,{16}6,5/2,3,
{32}3,5,{16}3,4/7,6,{32}6,5,{16}6,5/2,{32}3,4,{8}3h[32:3],{16}7/4,6,{32}6,5,{16}7h[16:1],{32}4,6h[16:1],,3,
{8}5h[16:1],{16}5/2,3,{32}3,4,{16}3,{32}5,4,,,{8}4b/6b,{16}5/2-5[16:1],3,{32}3,4,{16}3,2/7-4[16:1],6,
{32}6,5,{16}6,7/2-5[16:1],3,{32}3,4,{16}3,{32}2/7h[16:1],,,6,,,{16}4,2/5,{32}3x,4x,,3,7,4x,6x,3x,5,4,
{16}6-8[16:1],4,{32}2-4[16:1],5,,4,{8}E7,{16}E3,5,{8}B6/E6/B5,{16}3/8,{32}4,7,,4,{16}5,6/1,{32}5,2,
,5,{16}4,3/8,{32}4,7,,4,{16}5,6/1,{32}5,2,{8}6h[16:1],{16}8/3,{32}4,7,,4,{16}5,{32}5,3,4,2h[16:1],
,6,,,{16}7/3,{32}4,5,{16}4,{32}6,5,{16}7,{32}8,4,{8}6b,{16}5/2,7,{32}7,8,{16}7,4/7,2,
{32}2,1,2x,3,4,2x,3,4,2x/E3,E4,E5,E6,E7,E8,E1,E2/B1/B2,,,,,3/5-2[16:1],,,B8/E8/B7,,,,,5/7-4[16:1],,,B3/E4/B4,
,,,,7/1-6[16:1],,,B6/E6/B5,,,,,{8}1b/2b,5/3h[8:1],{16}4,{32}3,4,,4,,,7/1,,,2,
{16}1,1,6/4,{32}3,4,,4,,3,{16}7/1,6,{8}4/6h[8:1],{16}5,{32}6,5,,5,,,2/8,,,7,
{16}8,8,3/5,{32}6,5,,5,,6,2/8,,,3,{8}5/3h[8:1],{16}4,{32}3,4,2,4,,5,{16}7/1,{32}2,1,
3,1,,8,{16}6/4,{32}3,4,2,4,,5,{8}7h[8:1]/1-4[16:1],{16}3-6[16:1],6,1/5-8[16:1],7,{8}3,{16}5/3,{32}3,7-2[16:1],
3,5,{16}4,5h[32:1],{32}3,7b,
E
&lv_6=1
&des_6=
&inote_6=
(85){4},{1},,,,,,,,,,,,,,,,,,,,,,,,{4},{8}6/2,
{16}3,{32}1/5,2-4[16:1]/6-8[16:1],,,,5,1,,,2-8[16:1]/6-4[16:1],
,,,,,,,6-1[16:1]/2-5[16:1],,,,,,,,6-3[16:1]/2-7[16:1],,,,,,,,6-1[16:1]/2-5[16:1],,,,,,,,6-2[16:1]/2-6[16:1],
E
