&title=極私的極彩色アンサー
&artist=ガールズバンドクライ
&first=0
&des=GДmoγis♪
&lv_4=13
&lv_5=14
&inote_5=(150)
{32},,,,,,,,,,,,,,,
(150.001)
{1},
{16}
3bV15[2:1]*v5[2:1],,,,,,,,
,,,,,,,,6V84-2[2:1]/4h[2:1],,,,,,,,,,,,,,,,1s5[2:1],,,,,,,,
,,,,,,
,,2/7,,,,3/6,,,,
4w8b[8:1]/5w1b[8:1],,,,4b/5b,,,,
{16}
2x,3,4,5,
7x,6,5,4,
1x,2,3,4,
8,7,6,5,
{8}
2-8[8:1],8-4[8:1],
4-6[8:1],,
{16}
,,,,
,,,,
8x-2-7-3-6-4-6-8-2-4[2:3]/1x-7-2-6-3-5-7-1-3-5b[2:3],,,,
,,,,
,,,,
,,,,
,,,,
,,,,
,,,,
,,,,
{16}E2,E3,E4,E5,E6,E7,D2,D3,D4,D5,D6,D7,{4}D8/E1,Cf,
{16}E8,E7,E6,E5,E4,E3,D8,D7,D6,D5,D4,D3,,,,,
1x,2x,8x,7x,
2x,3x,7x,6x,
3x,4x,6x,5x,
,,,,
1,2,8,7,
2,3,7,6,
3,4,6,5,
,,,,
2,8,2,8,
6,8,6,8,
4,8,4,8h[16:1],
,,,,
8,1,8,1,
4,1,4,1,
6,1,6,1h[16:1],
,,,,
4,6,4,6,
3,7,3,7,
2,8,2,8,
2,8,2,8,
1-5[16:1]b,,2/8,,
{32}
5b/1,6x,7x,8x,
1x,2x,3x,4x,
5x,6x,7x,8x,
1x,2x,3x,4x,
5x,,,,
{16}
,,8^5[8:1],,
4,4,8-3[8:1],,
2,2,8-5[8:1],,
4,4,8^3[8:1],,
1,1,8-4[8:1],,
5,5,8-3-6-1-4[3:1],,
,,A3,,
A6,,A1,,
A4,,1x-3[8:1],,
7,7,1-6[8:1],,
4,,1-3[8:1],,
7,7,1x,,
8,,7,,
6,,2x-7[8:1]/6x-3[8:1],,
,,2-5[8:1]/6-1[8:1],,
,,2/6,,
,,8x^5[8:1],,
4,4,8-3[8:1],,
2,2,8-5[8:1],,
4,4,8^3[8:1],,
1,1,8-4[8:1],,
5,5,8-3-6-1-4[3:1],,
,,A3,,
A6,,A1,,
A4,,1-3[8:1],,
7,7,1-6[8:1],,
4,,1-3[8:1],,
7,7,1x,,
,,B6h[8:1]/B5h[8:1],,
1,,2,,
B3h[8:1]/B4h[8:1],,
{32}
8x,7x,6x,,
,,,,
8x,1x,2x,,
{16}
,,,,
,,,,
3,4,2/5,,
,2-7[8:1]/5-8[8:1],,,
2b/5b,,,,
,,,,
6,5,7/4,,
,7-2[8:1]/4-1[8:1],,,
7b/4b,,,,
,,,,
1/5,2/6,3-7[8:1]/7,,
7<5[8:1],,5-1[8:1],,
1>4[8:1],,8x,,
7x,,6x,,
5x,,,,
B7/B6/B2/B3,,B7/B6/B2/B3,,
,,,,
,,,,
1-5[100#16:1],2,3-7[100#16:1]b,,
,1b,,,
3b,,,,
,,,,
6,6,6-3[8:1],,
,6b-2[8:1]b,,,
6b,,,,
,,,,
E4h[16:1]/B3h[8:1]/B4h[8:2]/E8h[8:3]/B8h[8:2]/B7h[16:1],,,,
,,,,
,,1/2,,
5/6,,7/8,,
3/4,,E7/B7/B6/C/B2/B3/E3,,
,,1b-5[8:1]/8b-6[8:1],,
,,8-4[8:1]/1-3[8:1],,
,,8/1,,
,,
{8}7-4[75#16:1],4-8[75#16:1],8-3[75#16:1],3>6[75#8:1],7,,
{16}
,,A2,,
A8,,A6,,
B2/E3/B3,,Cfh[8:1],,
{32}
1,8,7,6,
,,,,
2h[8:1],,,,
8,7,6,5,
,,,,
1h[8:1],,,,
7,6,5,4p6-4-8[2:1],
,,,,
2h[4:1],,,,
,,,,
,,,,
1x,,,,
2x,,,,
,,,,
{16}
1-3[8:1]*-4[8:1],,
,,1-7[8:1]*-6[8:1],,
,,1,,
,,
{8}2-6[75#16:1],6-1[75#16:1],1-5[75#16:1],5<3[75#8:1],2,,
{16}
,,A7,,
A1,,A3,,
6,,6bh[8:1],,
{32}
8,1,2,3,
,,,,
7h[8:1],,,,
1,2,3,4,
,,,,
8h[8:1],,,,
2,3,4,5,
,,,,
8xv1[4:1],,,,
5x-1[8:1],,,,
8xb,,,,
5xb,,,,
,,,,
,,,,
{16}
8b-6[8:1]/1b-3[8:1],,
,,1-5[8:1]/8-4[8:1],,
,,1/8,,
,,
{8}2-5[75#16:1],5-1[75#16:1],1-6[75#16:1],6<3[75#8:1],2,,
{16}
,,A7,,
A1,,A3,,
B7/E7/B6,,E6fh[8:1],,
{32}
8,1,2,3,
,,,,
A7h[8:1]/B7h[8:1]/E7h[8:1],,,,
1,2,3,4,
,,,,
A8h[8:1]/B8h[8:1]/E8h[8:1],,,,
2,3,4,5qq5[4:1]*pp5[4:1],
,,,,
,,,,
,,,,
,,,,
,,,,
8,,,,
1,,,,
{16}
8-6^5[8:1]*-5[8:1],,
1,,8b-2^3[8:1]*-3[8:1],,
,,8b,,
,,
{8}7-3[75#16:1],3-8[75#16:1],8-4[75#16:1],4>6[75#8:1],7,,
{16}
,,A2,,
A8,,A6,,
B2/E3/B3,,E4fh[8:1],,
{32}
1qq5[2:1]*pp5[2:1],8,7,6,
,,,,
,,,,
,,,,
,,,,
,,,,
,,,,
1,8,1,8,
1,2,3,,
,,8,7,
6,,,2,
3,4,,,
7,6,5,4,
3,2,1,8,
7,6,5,4,
3,2,1,8qq5[1:1]/4qq1[1:1],
,,,,
,,,,
,,,,
,,,,
,,,,
,,,,
,,,,
{16}
,,,,
,,,,
,,,,
,,,,
,,,,
3,4,2h[16:1],,
,,6,5,
7h[16:1],,,,
2,4,3,5,
4,6,5,7,
,,1-5[8:1],7,
5,3,1b,Cf,
,,,,
1,8,2,7,
,,
{32}
1x,2x,3x,,
8x,7x,6x,,
2x,3x,4x,,
7x,6x,5x,,
{16}
,,
3,6,4,5,
,,
{32}
2x,3x,4x,,
7x,6x,5x,,
1x,2x,3x,,
8x,7x,6x,,
{16}
,,
6,5,E8h[8:1],,
,,
{32}
2x,3x,4x,,
1x,2x,3x,,
7x,6x,5x,,
8x,7x,6x,,
{16}
,,
3,4,E2h[8:1],,
,,
{32}
7x,6x,5x,,
8x,7x,6x,,
2x,3x,4x,,
1x,2x,3x,,
{16}
1xq3[1:1],,,,
,,,,
C,,,,
,,,,
3q5[1:1],,,,
,,,,
C,,,,
,,,,
5q8[1:1],,,,
,,,,
C,,,,
,,,,
8p6[1:1],,,,
,,,,
C,,,,
,,,,
6>4[4:1],,,,
4>1[4:1],,,,
1b<5[4:1]b,,,,
5>1[4:1],,,,
1b<5[4:1]b,,,,
5>1[4:1],,,,
1b<5[4:1]b,,,,
5>1[4:1],,,,
C,,,,
,,,,
8,8,
{32}
,,
2,3,4,,
,,
8,7,6,,
{24}
1,2,3,4,
5/6,7,
8,1/2,3,4/5,
6,7,
8/1,2,3/4,5,
6,7,
{16}
8bqq5[2:1]/4bqq1[2:1],,,,
,,,,
,,,,
,,,,
,,,,
3,4,3,5,
4,5,3,4,
3,5,4,5,
{16}
2-4[8:1]/6-8[8:1],,
,,2-6[8:1]/6-2[8:1],,
,,2/6,,
,,
{8}
1bx-6[8:1],8-5[8:1],1bx-4[8:1],8,1,
,,,1,2,
{32}
3,,,,
4x/8x,,,,
8x/4x,7x/3x,6x/2x,5x/1x,
,,,,
5x/1x,,,,
1x/5x,2x/6x,3x/7x,4x/8x,
,,,,
4x/8x,,,,
8x/4x,7x/3x,6x/2x,5xp3[2:1]/1xp7[2:1],
,,,,
,,,,
,,,,
,,,,
,,,,
,,,,
,,,,
{16}
8q5[8:1]/1>4[8:1],,
,,1p4[8:1]/8<5[8:1],,
,,8/1,,
,,
{8}
1bx-3[8:1],5-7[8:1],1bx>8[4:1],5,1,
,,,2/5,3/6,
{32}
4/7,,,,
5x/8x,,,,
5x/8x,4x/7x,3x/6x,2x/5x,
,,,,
4x/1x,,,,
4x/1x,5x/2x,6x/3x,7x/4x,
,,,,
{16}
8bh[4:1],,
,,4,,
3,,2x-5[8:1]/7x-4[8:1],3x/6x,
,,2b/7b,,
,,,,
{16}
5^8[8:1]/1^4[8:1],,
,,1p5[8:1]/5p1[8:1],,
,,1/5,,
,,
{8}
8bx-3[8:1],1-4[8:1],8bx-5[8:1],1,8,
,,,E4,Ch[16:1],
{32}
E8,,,,
7x/8x,,,,
7x/8x,1x/6x,5x/2x,,
,,,,
2x/1x,,,,
2x/1x,8x/3x,4x/7x,,
,,,,
1x/8x,,,,
,,,,
1x/8x,2x/7x,3x/6x,4x/5x,
,,,,
,,,,
{16}
8-4[8:1],2,4,6,
8b,Cf,,,
1<7v5[8:1]/8-5[8:1]
,,
,,8>2v4[8:1]/1-4[8:1],,
,,8/1,,
,,
{8}
8bx<5[8:1],4>1[8:1],8bxqq4[4:1],4,8,
,,,1/7,2/6,
{16}
3/5,,4-8[2:1],,
4h[2:1],,,,
,,,,
,,,,
,,
{32}
7,,7,,
1,2,3,,
7,,7,,
2,3,4,,
,,,,3,4,
5,6,7,8,
1,2,3,4,
5,6,7,8,
1pp4[1:1]/5pp8[1:1],,,,
,,
,,,,
,,,,
{16}
,,,,
,,,,
,,,,
,,,,
,,,,
,,,,
,,
{16}6,5,6,4,5,4,6,5,6,4,5,4,E8/B8/B7,,,,
{16}3,4,3,5,4,5,3,4,3,5,4,5,E2/B1/B2,,,,
{16}6,5,6,3,4,3,6,5,6,3,4,3,B7/B6,,B7/B6,,
{16}2x,4,2,6x,4,6,2x,4,2,6x,4,6,3x,6,4x,5,3b,5,4h,7b,5,6h,2b,4,3h,7b,5,6h,
,,,,
6b,4,5h,2b,4,3h,7b,5,6h,2b,1,2h,
{32}
8,7,6,5,
4,3,2,1,
{16}
8-5[2:1],,,,
,,,,
,,,,
,,,,
1-4[2:1],,,,
,,,,
,,,,
,,,,
{1}8bz4[8:13],
{16}
,,,,
,,,,
2-6[16:1],,2b,,
,,,,
E
