&title=.MP WORKS REEL
&artist=dotMP channel
&first=0
&des= hitogami
&wholebpm=133
&first_4=
&first_5=0
&lv_5=13+
&inote_4=
&inote_5=(133)
{1},
{2}6h[16:11]/2,{16}3,,,2,{4},
{2}5h[16:11]/4,{16}4,,,3,,,35,,
{2}6h[16:11]/2,{16}3,,,2,{4},
{2}5h[16:11]/4,{16}4,,,3,,,35,,
{8}1,7h[8:1]/8h[8:1],,,{16}35,,,4h[8:1]/6h[8:1],,,,,
{1}5v2[2:1]*v8[2:1],
{8}1,7h[8:1]/8h[8:1],,,{16}35,,,4h[8:1]/6h[8:1],,,,,
{1}5v2[2:1]*v8[2:1],
{8}1,78,2,{16}6,2,6h[16:2],,3,5h[16:3],,,4,4,
{1}5p2[2:1]*V74[2:1],
{8}1,78,2,{16}6,2,6h[16:2],,3,5h[16:3],,,4,4,
{1}5p2[2:1]*V74[2:1],
{8}1,28,7h[8:1],{16}5,7,2h[16:2],,3,3h[16:2],,4,4h[16:2],,
{16}6,5,7h[8:1],,5,5h[8:1],,6,6h[8:3],,7,,5,,4,,
{8}1,28,7h[8:1],{16}5,7,2h[16:2],,3,3h[16:2],,4,4h[16:2],,
{16}6,5,7h[8:1],,5,5h[8:1],,6,2h[16:1],,8h[16:1],,6h[16:1],,4h[16:1],,
{1}1w5[4:3],
{4},{8}8h[8:1],{16}5,6,2h[8:1],,4,35,,35,,,
{4}1h[64:1],{16}1,8,2,,3/7h[8:1],,5,6h[8:1],,4,5,,
{8}28,28,{8}8h[8:1],{16}5,6,2h[8:1],,4,35,,35,,,
{16}1h[64:1],7,8,6h[8:1],,8,5,2,4,3,5,5h[8:1],,4,5,36,{2}3q8[4:1]/6p2[4:1],
{16},,,35,,35,,,
{1}1w5[4:2],
{4}6h[8:1],4h[8:1],3h[8:1]/7h[8:1],2h[8:1]/8h[8:1],
{16}1h[64:1],7,2,6h[8:1],,8,7,2h[8:1],,4,3,6h[8:1],,5,4,3,
{16}8,4,7,5h[8:1],,6,5,4/7h[8:1],,2,2,4,,35,35,,
{16}1h[64:1],7,2,8h[8:1],,4,7,3,,3,5,4h[8:1],,5,6,7,
{16}8h[8:1]/5,,5,7h[8:1],,4,6h[8:1],,3,5h[8:1],,2,34,,56,,
{16}1h[64:1],7,2,8h[8:1],,5,7,3h[8:1],,4,2,6h[8:1],,8,6,2,
{16}25,6,3,8h[8:1],,5,4,7/3,,4,5,6/2,,78,78,,
{16}1h[64:1],7,2,4h[8:1],,3,4,2,2,5,4,7h[8:1],,5,6,4,
{12}3h[64:1]/7,6,4,2h[64:1]/6h[64:1],3,5,{16}4h[64:1]/7h[64:1],2,8h[64:1],3,4h[64:1]/5h[64:1],6h[64:1],7h[64:1],8h[64:1],
{12}1h[64:1],3,5,8,6,4h[24:35],{1}8h[8:11],{2},
{12}1h[64:1],3,5,8,6,4h[48:7],{8}8h[16:9],2h[16:13],,,,6h[16:5],,,
{16}6h[64:1]/2h[64:1],,,3h[64:1]/7h[64:1],,,4h[64:1]/8h[64:1],,
{12}1h[64:1],3,5,8,6,4h[24:14],{2}8h[8:4],{8},2h[8:3]/6h[8:3],,,,{16}35,,,46,,,
{12}1h[64:1],3,5,8,6,4h[48:7],{8}8h[16:9],2h[16:13],,,,6h[16:5],,,
{16}7/3,,,3/7,,2/6,,26,
{12}1h[64:1],5,3,8,6,7,
{24}2,4,2,4,2,4,2,4,2,4,2,4,2,4,2,4,2,4,2,4,2,4,2,4,2,4,2,4,2,4,2,4,2,{8},
{12}1h[64:1],5,3,8,6,7,
{24}2,4,2,4,2,6,2,6,2,6,2,6,2,6,2,6,4,6,4,6,4,6,4,6,{16}57,,,24,,,57,,
{12}1h[64:1],5,3,8,6,7,
{24}2,4,2,4,2,4,2,4,2,4,2,4,2,4,2,8,2,8,2,8,2,8,2,8,2,8,2,{16}37,,,26,,,
{12}1h[64:1],5,3,8,6,7h[24:23],
{1}2h[8:7],1b,,,E
