&title=ルカルカ★ナイトフィーバー
&artist=samfree
&first=1.3
&des=玉子豆腐(偽)
&lv_5=13+
&inote_5=(160)
{8}36,,27,2-5[8:1]b/7-4[8:1]b,36,2b/7b,,Cf,,
{16}1,,7,,3,,5,4h[16:5],,,,,5,,6,,2,1,3,8,4,7,5,6,7,8,1,6,2,5,3,4,
{16}8,,2,,6,,4,5h[16:5],,,,,4,,3,,3,4,2,5,1,6,8,7,6,5,4,7,3,8,2,1,
{16}1,,7,,3,,5,4h[16:5],,,,,5,,6,,5,6,4,7,3,8,2,1,8,7,6,1,5,2,4,3,
{8}
{16}8,,2,,6,,4,5h[16:5],,,,,4,,3,,
{16}7h[8:1],,6,,1,8,,,2b/6b,,,,4b/8b,,
{8},,3,3h[4:1]/5,,5,2h[4:1]/8,,8,34,3,3/4h[4:1],3h[8:1],,
{16}B3,B2,B1,B8,B7,B6,B5f,,
{8}6x,6hx[4:1]/4x,,4,7h[4:1]/1,,1,65,6,6/5h[4:1],6h[8:1],
{16}B7,B6,B5,B4,B3,B2,B1f,,
{8},7x,7hx[4:1]/1x,,1,6h[4:1]/4,,4,78,7,7/8h[4:1],7h[8:1],
{8},,54,3/4h[8:1],,6/5h[8:1],,2/3h[8:1],,7/6,,2/5h[4:1],,2,7/4hb[4:1],,7b,,2b/5b,3,
{8},74,74,,2x/5x,2x/5x,2x^8[8:1]/5xh[4:3],,2x^4[8:1],,2xpp5[8:5],,2b,
,6,
{4}6,7-3[8:1],7b,
{8}6,2x^8[8:1]/5xh[4:3],,2x^4[8:1],,2xpp5[8:5],,2b,
,6,{4}6,7-3[8:1],7b,
{16}6,,C,,,,1x-4[8:1]/5x-8[8:1],,,,15,,,,C,,,,
13,,2,,68,,7,,18,,2,1,2pp1[2:1]*>8[2:1],,38,,
,,,,,,,,,,,,
7b/8b,,,,1b/2b,,,,5b/7b,,5b/7b,,2b/4b,,,,
{8}5<1[4:1]/4b,,3b,,2b,,
{16}2b/1b,,,,8b/7b,,,,4b/2b,,4b/2b,,7b/5b,,,,1b/3b,,1b/3b,,6b/8b,,,,
8b/6b,,8b/6b,,3b/1b,,,,1b/7b,,1b/7b,,4b/2b,,4b/2b,,7b/5b,,7b/5b,,,,
{8}8b/2-6[8:1],1x,2b/8-4[8:1],1x,8b/2-6[8:1],1x,2b/8,,1b/7-3[8:1],,7b/1-5[8:1],,1b/7-3[8:1],,7b/1,,5w1[8:1],,
{8}C,A1/A8/A2,,,
{8}36,,27,2-5[8:1]b/7-4[8:1]b,36,2b/7b,,Cf,,
{8}2v5[8:1],,1b/2b,,7v4[8:1],,8b/7b,,
{4}6-8-4-2[4:1],4b-1>2v2b[4:1],,
{8},,1-3[8:1]/8-4[8:1],,1b/8b,,8-6[8:1]/1-5[8:1],,8b/1b,,
{8}4>1[2:1],2b,3b,4b,5b,6b,7b,8b,,
{8}1,2,7,6,6,,3,4,4qq4[3:1],4pp4b[3:1],,,,,,
{4}1-3[8:1]/8-4[8:1],1b/8b,8-6[8:1]/1-5[8:1],8b/1b,
{16}15,2,3,4,51,6,7,8,1b/5,2,3,4,5/1b,,
{8},3v8[8:1],,4b/3b,,6v1[8:1],,5b/6b,,
{4}6-8-4-2[4:1],4b-1>2v2b[4:1],,,
{16}84,7,6,5,48,3,2,1,8b/4,7,6,5,4/8b,,,,
{8}1>4[2:1],3b,2b,1b,8b,7b,6b,5b,
{8}2,1/8-4[8:1],7,1-5[8:1]/8,2,1/8-4[8:1],7,1-5[8:1]/8,
{8}2,1/8,B2h[4:1]/E3hf[4:1]/B3h[4:1],B7h[8:1]/E7hf[8:1]/B6h[8:1],
{8},,,,2-6[8:1]/7,,7-3[8:1]/2,,1-5[8:1]/7,,1,
{8}36,,27,2-5[8:1]b/7-4[8:1]b,36,2b/7b,,Cf,,
{16}1,,7,,3,,5,4h[16:5],,,,,5,,6,,2,1,3,8,4,7,5,6,7,8,1,6,2,5,3,4,
{16}8,,2,,6,,4,5h[16:5],,,,,4,,3,,3,4,2,5,1,6,8,7,6,5,4,7,3,8,2,1,
{16}1,,7,,3,,5,4h[16:5],,,,,5,,6,,5,6,4,7,3,8,2,1,8,7,6,1,5,2,4,3,
{16}8,,2,,6,,4,5h[16:5],,,,,4,,3,,
{16}7h[8:1],,6,,1,8,,,2b/6b,,,,4b/8b,,
{8},5w1[4:1],,1w5[4:1],C,,C,,
{8}36,,27,2-5[8:1]b/7-4[8:1]b,36,2b/7b,,Cf,,
E
