&title=GIMME DA BLOOD
&artist=C-show
&first=0.06
&lv_7=血
&des=MianTuan
&des_7=MianTuan
&inote_7=
(110){4},{16},,,,,,,,,,,,1b>1b[0##1.5],
1?w5[3.6818##0.1818],,,,,,,,,,,,2,5,3,
7,2,6,3,7,4,6,3,8,2,7,3,{4}1,
{16}8b<8b[0##1.5],8?w4[2.0455##0.1705],,,,,,,,,,,,4,6,2,
{64}8,B8,C,B4,{16}A4,,,5,4v1[1.5##0.1818]*v7[1.5##0.1818],6,3,7,2,8,1,,6/2,,5/3,
{64}4b,Cf,,,,,,,,,,,{16}8x,1v4[1.6364##0.1818]*v6[1.6364##0.1818],8,2,7,3,6,4,5,,7/3,,2/8,
{64}1b,Cf,,,,,,,,,,,{16}3x,5,2,6-2[1.6364##0.1364],1-7[2.3182##0.1364],7-4[2.8636##0.1364]*-4[2.8636##0.1364],2-6[1.5##0.1364],8-3[2.3182##0.1364]*-3[2.3182##0.1364],3-5[0.6818##0.1364],,,,,{8}3x,
6x,{4}2x,{16}1x,,,8x,,7x,,,{2}5bpp8b[0##0.8182]/4bqq1b[0##0.8182],
{4}1v6[1.0909##0.1364]*v4[1.0909##0.1364]*q5[1.0909##0.1364]*p5[1.0909##0.1364],{16}5,6/4,7/3,2/8,
{64}1b,Cf,,,,,,,,,,,,,,,{16}3x-8[0.6818##0.1364],7x-4[0.8182##0.1364],2,6,,3x,,7x,,1,5,1,
5b-1b[0##0.1818],,,3-1[1.0909##0.1364],7-5[0.6818##0.1364],4-8[0.2727##0.1364]*-8[0.2727##0.1364],8,4x,,7x,,3x,,,{8}C,
6/8-4[16:1],{16}7,1,{8}8/2,3,3/1-5[16:1],{16}2,8,{8}1/7,{16}6x,4,
5<8[16:1],3,6,4,{8}5,{16}2x,7,1>4[16:1],8<7v4[0.9545##0.1364]*>1v4[0.9545##0.1364]*p4[0.9545##0.1364]*q4[0.9545##0.1364],2,7,{4}1,
{64}8bx,Cf,,,,,,,,,,,,,,,{16}7x-4[0.6818##0.1364],3-8[0.8182##0.1364],6,2,,7x,,3x,,5,1,5,
1b-5b[0##0.1818],,,7-5[16:1],3-1[0.6818##0.1364],8-4[0.8182##0.1364]*-4[0.8182##0.1364],2w6[1.3636##0.1364],7x,,3x,,8x,,,{8}C,
{4}2b,{16}4-1[2.8636##0.1364],8-5[2.4545##0.1364],2-7[3.1364##0.1364],6-3[2.7273##0.1364],3h[16:1],7h[16:1],1h[16:1],5h[16:1],{4}Cfh[4:1],
{16},,,,7/3,,,8bx-5b[0##0.1364],,4bx-1b[0##0.1364],,6bx-3b[0##0.1364],,2bx-7b[0##0.1364],,,{4}Ch[1:1]/8x-4[2.7273##0.1364],
7s3[3.2727##0.1364]*s3[3.2727##0.1364],6z2[2.7273##0.1364]*z2[2.7273##0.1364],5-1[16:1],
5x,8x,8x/5x,7bx/6bx,
{8}7/2,{32}6,4,6,4,{8}8x-4[3.8182##0.1364],{32}3,5,3,5,{8}1x-5[3.2727##0.1364],{16}7x/2x,7x>4[0.6818##1.3636]/2x<5[0.6818##1.3636],,3,6,3,
7x/2x,,,,,,,,,,,,,4/5,6/3,2/7,
{4}8bx/1bx,{16}6x-4-7-3-8[1.0909##0.5455],1$bx,7x,1$bx,8x,1$bx,1$bx,1$bx,{4}6x,
2bx-5b[0##0.1818],{16}4x-6[1.6364##0.1364],8$bx,8$bx,8$bx,3x,8$bx,2x-4[0.8182##0.1364],8$bx,,,{8}5x/3x,
{4}4x/2x,C/B7/B8,{8}6/4,7<3<7[0.8182##0.8182],C/B1/B2,8,
{16}7/1h[4:1],,,,,,,2-5[1.2273##0.1364],5x,1-6[0.9545##0.1364],{8}6x,7/8,8,
{4}1b/2b,{16}3x-5-2-6-1[1.0909##0.5455],8$b,4x,8$b,5x,8$b,8$b,8$b,{4}3x,
7bx<4b[0##0.1818],{16}5x>2[1.6364##0.1364],1$b,1$b,1$b,7x,1$b,8x<5[0.8182##0.1364],1$b,,,{8}4/7,
{4}5/8,{8}E4/B3/E3/A3,A6/E7/B6/E6,{32}1,8-4[1.0227##0.1364],{16}1-5[0.9545##0.1364],{8}A2/E3/B2/E2,E7/A7/B7/E8,6/3,
8b/1b,{16}3,2,6,7,2,1,7,8,{8}1h[8:3],,,{4}6,
C,5-2[11.2424##0.2222],C,
4,C,3-8[7.7974##0.2105],C,
8b<5b[0##0.1364],C,1-6[4.4156##0.2],C,
8,C,7-4[1.0909##0.1905],C,
(105){2}4b/E7f/7b-4b[0##0.1905],(100)6b/E1f/1b-6b[0##0.2],
(95)8b/E3f/3b-8b[0##0.2105],(90)2b/E5f/5b-2b[0##0.2222],
(87){8}1,1,1,1,{16}1/8<8<6>4>2<8<7<6>5>4>3>2<1<8[1.7241##2.069],1,7/2,7,6/3,3,5/4,5,
{8}Ch[8:1],{64}8x,D8,A7,D7,A6,D6,A5,D5,A4,D4,A3,D3,A2,D2,A1,D1,A8,D8,A7,D7,A6,D6,A5,D5,A4,D4,A3,D3,A2,D2,A1,D1,A8,D8,A7,D7,A6,D6,A5,D5,A4,D4,A3,D3,A2,D2,A1,D1,,,,,,,,,{2}1x-5[1.8966##0.1724]/7x-3[1.5517##0.1724],
{16}4x,7bx,,1bx,,8,8,8,
6b/2b,{32}4,5,{16}3,2,7-5[0.5172##0.1724]/1-3[0.8621##0.1724],6,4-8[0.8621##0.1724],7bx,2,1bx,6,4bx,,7,{32}1,8,{16}2,
{4}3bxh[8:7]/7x-3-7[2.4138##0.3448],{16}4$b,,,1$b,,6$b,6$b,6$b,5,6,{8}7x,
{4}1bxh[4:3],{16}8$b,,,3$b,,5$b,5$b,5$b,4,5,6,7,
{8}8b-5b[0##0.1724]/1b-4b[0##0.1724],{16}6x/3x,{32}7,1,{16}8-4[1.2069##0.1724],2,3/5-2[0.5172##0.1724],6,7,5bx,,8bx,,1,1,1,
3b/7b,{32}5,4,{16}6,7,2-4[0.5172##0.1724]/8-6[0.8621##0.1724],3,5-1[0.8621##0.1724],2bx,7,8bx,3,5bx,,2,{32}8,1,{16}7,
{8}6b/2b,5<7[1.5517##0.1724]/3>1[1.5517##0.1724],{16}4,4h[16:3],,,8,4,,5/3,,2x,5,8,
1,1,{8}3/7,{16}5,6/4,{32}7,8,{16}7,6/1,{64}B1,B2,B3,B4,B5,B6,B7,B8,E1,E2,E3,E4,E5,E6,E7,E8,A8,A1,A2,A3,{8}A4/Cfh[8:1],
(90){4},7b/B3/E3/E4,(95)1b/B5/E6/E5,5b/E1/B1/E2,
(100){8}3b/B7f/E7/E8,3,8b/B4/E4/E5,8,(105)2b/B6/E6/E7,2,(110)6b/B2/E2/E3,6,
{16}2,7,1,8,2-6[2.4545##0.1364],7-3[1.5##0.1364],1-5[1.9091##0.1364],8-4[1.5##0.1364],3,3,4,4,5,5,6,6,
{8}7bx,8bx,1bx,2bx,{2}Cfh[4:1],
{1}7b-5-8b[0##1.9091]/3b-1-4b[0##1.9091],
{16}E1f/B8/B1/E2/E8/D8/D2,,,,,,,8bx-6b[0##0.2045],,2bx-4b[0##0.2045],,1bx-5b[0##0.2045],,3x,3x,3x,
{8}4/2,6/8,{16}5-8[2.8636##0.1364],1-4[2.4545##0.1364],7-2[3.1364##0.1364],3-6[2.7273##0.1364],6h[16:1],2h[16:1],8h[16:1],4h[16:1],{4}Cfh[4:1],
{16},,,,2/6,,,1bx-4b[0##0.1364],,5bx-8b[0##0.1364],,3bx-6b[0##0.1364],,7bx-2b[0##0.1364],{8}A2,
{4}4bx-8b[0##0.5455],{16}6x-1[0.6818##0.1364],2x-5[0.8182##0.1364],7,3,,6x,,2x,,8,4,8,
4b-8b[0##0.1818],,,7-5[16:1],3-1[0.6818##0.1364],6,4-8[0.6818##0.1364],7x,,3x,,4x,,1x-5[0.4091##0.1364],{8}8xv6[1.2273##0.1364]/2xv4[1.2273##0.1364],
1bx,3b/7b,{16}3bh[8:1]/7bh[8:1],,,2bx/8bx,,5x/3x,,7/1,{4}7h[8:1]/1h[8:1],
{16}2,4,6,8,3h[16:1],5h[16:1],7h[16:1],1h[16:1],{4}2-6[1.0909##0.1364],{16}8b,1,8,1,
{32}2b/7b-3b[0##0.1364],C,
E
