&title=for.loop
&artist=log() vs. A-saph
&first=0
&lv_5=1
&des_5=
&inote_5=
(125){4},
E
&lv_6=14
&des_6=break.mxtax
&inote_6=
(165){4}A6,,{2}A5,
A4,A3,
{4}E3f/B2f/B3f/8<5[8:1],8,3-1[8:1],3/1-6[8:1],
1-4[8:1],1,7h[2:1],5s1[8:1],
{1}5<1V75[0.7273##1.0909]*>1V35[0.7273##1.0909],
{2},C,
{4}6v8[8:1],6/3v5[8:1],3-1[8:1],3,
8-6[8:1],8-5[8:1],8/3-1[8:1],{8}3,8,
7,{16}4,6,{8}5,{16}3,4,{8}2,{16}7,6,{8}8,{16}2,1,
{8}3,{16}6,7,{4}8qq5[8:3]/1pp4[8:3],{2}1/8,
{4}E6f/B6f/E4f/B3f,{8}7-2[8:1],7,{4}7/3pp6[4:1],3,
8-5[8:1],8/5,{8}1/4,4/1,2-5[8:1]/3-8[8:1],3/2,
{4}2/3,C,7-4[8:1]/5-2[8:1],7/5,
8/1s5[4:1],1/5s1[4:1],{2}B7/B6,
{8}2/8-6[8:1],3,{4}4/8-4[8:1],8-2[8:1],8,
{8}3,3,8,8,{16}4,7,4,7,5,6,5,6,
3,6,5,6,3,7,5,7,3,8,2,8,2,8,1,1,
1,1,1,1,1,1,1,1,1s5[8:1],1,1,1,{4}1,
7b-1[8:1],{8}7,2-4[8:1],2,1-3[8:1],1,8-2[8:1],
{4}8,{8}7,7,{16}7,8,1,2,8,1,2,3,
{4}6-4[8:1],6/4,{8}7-5[8:1],7,8-6[8:1],8,
1-7[8:1],1,2,2,{16}2,1,8,7,1,8,7,6,
{4}3-5[8:1],5-7[8:1]/3-1[8:1],5/3,8,
{16}1,2,3,4,1,2,3,4,1,2,3,4,7s3[8:1],8,7,8,
{4}7,{16}2-7[8:1],2,,,{4}2,{16}6-1[8:1],6,,,6,
2,{8}2,{16}8,3,{8}3,{16}7,7,4,4,6,6,3,3,
{4}8>3[8:1],3/8-5[8:1],8,7/6,
{16}3,4,3,6,3,8,{8}3,{16}7,1,7,3,7,5,{8}7,
{4}6-3[8:1],{8}6,2,{4}1-5[8:1],1/6-8[8:1],
{8}6,4,{4}3-8[8:1],{8}3,7,{4}5-2[8:1]*-7[8:1],
5,{8}1<7[8:1],7-2[8:1],{4}1,5-8[8:1],
5/2-7[8:1],2/4-1[8:1],4/6-3[8:1],6/8-4[8:1],
8,{8}7,{16}5,6,,,4,4,{8}2,{16}8,8,
{1}6z2[2:1],
{4}7b-1[8:1]/1b-5[8:1],7/1,{12}2,4,4/E3,4,{6}4/E2,
{12}7,7,8,8,1,1,{8}2,2z6[0.5455##0.1818],,,{4}2/6,
{12}5,5,4,4,3,3,2,2/E8,2,
{4}2/E7,{16}7,1,8,1,{4}7,2-4[8:1]/6-8[8:1],
2/6,{12}1,1,5,5,8,8,4,4,7,
7,3,3/E6,3,{6}3/E7,{24}8,,,8s4[0.5455##0.1818],,,,,,,,,{4}8/4,
{12}2,3,4,2,3,4,1,,,1,
8,7,1,8,7,{4}5-1[8:1],1-5[8:1],
3,{12}7,5,6,2-5[6:1],4,3,2,,,{4}8-5[6:1],
{12}8-6[6:1],1,1,8-4[6:1],2,2,8,1,1,
{4}1-6[6:1],{12}1-4[6:1],5,5,1<6[6:1],5,5,5/1,,,2,
3,4,5/6,7,8,{4}1/2,B7/B6/B4/B3,
{12}5/2-7[6:1],4,3,2,,,5-1[6:1],6,7,8/5,,,2-5[6:1],
1,8,7/2,,,8-3[6:1],7,6,5/8,,,7-4[6:1]/2-5[6:1],
7/2,1/8,7/2,,,{4}3,3,
{24}3/6h[4:1],2,1,8,{12}7,{24}1,2,3,4,,,E7,B7,{12}B8,{24},,,,,,,,{8}4h[2:1],
,,6h[8:3],,,{4}5>6[1:1],
{8},,,,,,,,B2,
B6,{24}A1,E1,E8,A7,,,D2,B1,B7,E7,,,A2,B2,C,B6,,,E3,
B3,B4,E5,,,{4}7p3[8:1],7,{8}2/8-4[8:1],1,
8/2h[8:3],,,4h[4:1],,6h[8:3],{4}8>7[1:1],
,,,,A8f/B8f,
2,4/6,{8}7h[8:1],1h[8:1],
6h[8:1],2h[8:1],5h[8:1],3h[8:1],{4}8h[8:1],8h[8:1],
{32}E2/8v7[8:1],E3,E4,E5,{8}E6f,{4}8>3[8:1],8,4/7h[4:1],
{8}B5,6,B4,5,B3,4,B2,3,
{4}B1h[4:7],{24}B8,B7,E7,,,,,,,E5,B4,B3,,,,,,,{2}E6h[4:1],
{24}E7,B6,B5,E5,,,{4}Cf,
{8}E7f,4,E6f,2,E5fh[4:1],{32}E7,E8,E1,E2,{8}E3h[4:1],{32}D5,D6,D7,D8,
{4}D1h[4:3],2-6[8:1],2,Cf,
{8}7,7,6/4,4/6,3,3,2/8,6/5,
3/1,7/4,6/2,7/1,{2}3/5-8[0.7273##0.1818],
{4}5b>5[2:1]`1-6[8:1],1/5,{8},,2-7[8:1],4,
{4}2-5[8:1]*-4[8:1],2,{8}8-5[8:1],8-3[8:1],8,8,
{4}6-1[8:1],1>7[2:1]/6-3[8:1],6,8-2[8:1],
8-5[8:1]*-4[8:1],8<4[8:1]*>4[8:1],8,6/2-4[8:1],
2<4[2:1],2-7[8:1],2,8qq5[4:1],
{2}8/5qq2[4:1],{8}7,7,6,5,
{4}4-1[8:1]/2p3[2:1],4,8-5[8:1],8,
{2}2h[4:1],1h[4:1],
{8}7bw3[8:1],7b,{4}7b,1-4[8:1]/5-7-1-3-5[1:1],1,
5-2[8:1],5,1-6-2[4:1],1,
4-8-6[4:1],4/6-2-4[4:1],,B8/E8,
6pp4[4:1],6/2-5[8:1],{8}2,7<5[8:1],3,7,
,E3f/D3f,D2f/E2f,D1f/E1f,6-8[8:1],4,6,3-1[8:1],
5,3,8-6[8:1],2,8,1,{4}2-4[8:1],
{8}2,5,{4}6-8[8:1],8-2[8:1]/6-4[8:1],6/8,
3-7[8:1],7-3[8:1],,5/1,
E7h[4:1],B6,C,E8h[4:1],
{2}C/B7h[2:1],{4}B3h[4:1],E4,
{8}7,6/5,4,3,4/5,B6/B3,4/5,B7/B2,
{16}1,8,1,8-5[8:1],1-4[8:1],8,1,8,{8}1,Cf,,,8<5[8:1],
2-4[8:1],8,2,{24}8,7,6,5/2,,,2,1,8,7/4h[4:1],,,,,,{8}1-5[8:1],
1,1/3-7[8:1],,3/7<4[8:1],{24},,,8-4[8:1],1,2,
{8}3,8,6,7,{4}8-5[8:1]*-3[8:1],8,
{8}2h[4:1],{24}E8f,B7f,B6f,{8}E6f,1,1,8,8,7/8,
{24}5,6,5,6,,,{8}2/1,{24}4,3,4,{8}3,{24}7/8,6,5,{8}4,{24}2/1,3,4,
{8}5,{32}8,7,6,5,1,8,7,6,2,1,8,7,3,2,1,8,,,,,{8}6-8[8:1],{24}3,5,4,
{4}6,{8}2-4[8:1]/1-4[8:1],8,{4}2/1,B6fh[8:3]/B7fh[8:3],
{32}E5f,E4f,E3f,E2f,{8}E1f,{4}6/5,{16}4,6,3,7,4,6,2,8,
{8}1b-6[8:1],7/8,1/6,B5fh[8:5]/B4fh[8:5],{24},,,7,8,1,{4}2-6[8:1],
2,{16}7,8,1,2,3,4,5,6,{8}7/8,4/3,
{24}7,5,7,5,,,{8}1/2,8/3,{24},,,4-1[8:1]/8-5[8:1],7/3,6/2,{8}5/1,8/4,
{4}A1fh[4:1]/A5fh[4:1],B1/Cf/B5,{8}7h[8:1],{24}6,5,4,{8}3/8h[8:1],{24}1,2,3,
{8}4/7b-3[8:1],7,6-2[8:1],6,5-1[8:1],5,{24}1,2,3,4,,,4,
3,2,8/1-5[8:1],,,{8}7,8/1,6,{16}7,3,6,4,5,5,
6,4,7,3,8,2,7,6,2,3,{24}8,7,6,1,2,3,8bs4[8:5],{1},{16},{48},{4}5/2b-6[8:1],
{8}7b/2,{16}8,8,{8}8,{16}6,5/7,,3,{8}2/4,
{16}8b/1,7,6/2,5,{8}3/4b,{16}2/5,4,{12}3,2,1,8,7/1,6/2,
{4}5v2[8:1]/3v6[8:1],3b/5b,{8}1/7,{16}8,8,,7,{8}8/6,
{16}4/3,2/5,{32},1,,,8-2[8:1],7,8,7,8,7,8,7,{4}8<4[8:1],8,
{16}1,,,7,{32}1,2,3,4,{96},,,,,,{48}6,,5,,6,,{16}5,,7,{12}7,8,1,
{16}2,1,8,7,{8}6/3,{16}2,2,{12}7,1/8,7/2,3/6,{24},{8}3/6,
{24}8b,7,6,5,{48},{16}2,{24}8,7,6,5,,,3,4,3,4,,,2,5,2,5,,,1,
6,1,6,1,6,8,7,8,7,8,7,{2}8v1[0.7273##5.8182],
8/Cfh[1:6],B7h[2:7],
B6h[1:3],B2h[2:5],
{1}B3h[1:2],
E
