&title=Χάρων
&artist=Daily天利
&first=0.03
&des=翠楼伍
&lv_5=13+
&inote_5=(162)
{1},
{4}1-4[4:13]/8-5[4:15],,,,
{1},,,
{4}3-6[4:12],,,,
{1},,
{4},,
{8}6/5,3/4,3,{16}5,5,
{8}4-8[8:2],,3,2V84[4:2],,7,6,5>2[8:3],
{8}5,,6,7V15[4:2],,2x,3,4<7[8:3],4,,3,2V48[4:2],,7x,6,5,
{8}5-7[8:1],,1,1,,6,5<1[4:1],4,
{8}1>5[4:1],,5<1[4:1],,1>5[4:1],,5,,
{8}1<5[4:1],,5>1[4:1],,1<5[4:1],,5,,
{8}8,8,1/7,1/7,2/4,3/4,5/6,7/8,B7/B1/Cf/B5/B3,,,,,,,,
{16}1/2,,3,4,3,,3,5,4,4,6,6,2,,5/4,,
{16}8/7,,6,5,6,,4,5,,3,4,,1/2,,1/8,,
{16}1/2,,3,4,3,,3,5,4,4,6,6,5,,8/1,,
{16}3/4,,2,1,2,,8,1,,7,8,,6/5,,5/4,,
{16}3/4,,6,5,6,,1,8,2,2,7,7,3,,3/4,,
{16}6/5,,3,4,3,,2,1,,8,1,,7/5,,3/4,,
{16}1/2,,8,8,2x,1,3,8,2x,3,4,5,8x,7,6,5,
{16}3b,,,6V47[16:3],,,1-5[8:1],,3,,,,{16}8x,8x,8x,8x,
{16}8x/4,,,,3,5,3,5,2,4,2,4,1,3,1,3,
{16}8,1,2,3,5,6,7,8,4,3,2,1,7,6,5,4,
{16}2b,,,,6,4,6,4,7,5,7,5,8,6,8,6,
{16}1,8,7,6,4,3,2,1,5,6,7,8,2,2,{24}7x,6x,5x,
{24}4x/3xh[4:1],,,{16},,6,4,6,4,5,2,5,2,7,4,7,4,
{16}6,5,4,3,5,4,3,2,7,6,5,4,1,2,3,4,
{16}6b,,,,8,5,6,4,8,,,,2,5,4,7,
{16}3,3,4,4,5,5,6,6,4,4,5,5,B5,B4,B7,E8,
{16}C,,1xh[8:2],,,,2x,,4-2[8:1]/3,,,,4/5,,6,,
{16}7-4-6[16:3],,1h[8:1],,7,,2-5[8:1],,,,7/2,,7p3[8:1],,,,
{16}8h[8:1]/7,,,1h[8:1],,,2,,2-6[8:1]/6,,,,2/8V62[8:2],,,,
{16}8/5h[8:1],,,4h[8:1],,,3,,1b,,8/4,,7/5-7b[8:1],,,,
{16}4-8b[8:1]/5,,,,3V15[4:1]/4,,,,3/8,,7,7,6-8[8:1],,5x,,
{16}6/4,,,2x/3,,,1/8,,7/5V73[4:1],,4,4,5,,3,,
{16}2x,,,2h[8:1]/4h[8:1],,,1h[8:1]/5,,7b-1[8:1],,5,5,7,,4,,
{32}2xp5[8:2],1xq6b[32:7],2x,1x,2x,,,,{4},,,
{4},,{128}7x-2[4:5],6x-3b[4:7],,,,,,,,,,,,,,,{8},,,{1},,,
{8}4,3,2,,6x-3b[8:8],,,,
{8},,,,2-7[8:8],,,,
{8},,,,6-3b[8:6],,,,,,,,2h[8:6],,,5,6,,7h[8:2],,2-7[8:8],,,,,,,,6-3b[8:14],,,,,,,,B8/B1,,,,,,,,,,,,
{4},,2h[8:6]/4,{8},5,
{8},,6,6,6h[8:5]/4,,,3,,2,,8,8qq4[8:8],,,4,,,2,,3,,,,2,5,6,7,8<5[8:6],,,4,,,1,2,1>4[8:6],,,,6,,8,,1,,5p7[8:4],,,2,,,3xq1[8:4],,,,,,,,
{8}5/1,,1,7,2,,2/4-8[8:1],,3/4,{8},3,,
{8}3/8,,7/5,,7/B4/A4,,7/A3/B3,,
{8}6/A2/B2,,6/B1/A1,,5/8>4[8:2],,6,,
{16}7,7,,8,8,,{8},8/4,,8,3,
{8}7,,7/5-1[8:1],,6/5,,6h[8:1],,
{8}1/5,,2/5,,3/A6/B6,,4,A7/B7,
{8}4,A8/B8,4,1x<5[8:2],3,,2-7[8:1],,
{8}6-3[8:1],,8,,1b>6qq3[8:14],,,,
{4},,8,,
{4},,7>4[8:14],,,,C,,,,
{8}2,2,1/3,1/3,
{16}7,5,7,5,6,5,8,1,7,,7,,8/6,,8/6,,
{16}2,4,2,4,3,4,1b,,6,4,5,3,5,4,6,4,
{16}8,4,5,2,5,4,8,4,6,6,2,4,3,3,8,4,7b,,,1/2,,,6h[8:7]/4,,
{4},,,E2f/B1/B2,
{16}7/8,7,,2,1/2,,5,4,
{32}6/3,,2,1,8,7,6,5,{16}1,8,7,6,5>2[8:1]/1b,,7,7,5,,6,,
{16}1-5[8:1],,4,4,1,,7,,7<4[8:1],,2,2,7,,8,,
{16}3-6[8:1],,8,8,3,,1,,2<7[8:1],,5,5,2,,6,,
{16}5-1[8:1],,4,4,5,,3,,2>5[8:1],,7,7,2,,8,,
{16}1<6[8:1],,6,6,1,,4,,
{16}5,,3,4v1[8:1],,1,8,4,6x,,7-5[8:1],8x,,,8x/7x,,
{16}4,,6,5v8[8:1],,8,1,5,3x,,2-4[8:1],1x,,,1x/2x,,
{16}8-4[8:1],,7,1,8,,1,,8x/2-6[8:1],,3,1x,2,,7x,,
{16}8h[8:1]/5h[8:1],,,6h[8:1]/4h[8:1],,,2/3,,7h[8:1]/1h[8:1],,,,{16}7,1,8,2,
{16}1v4[8:1],,,3,3/1,,2,,1>4[8:1],,,5,5/1,,7,,
{16}8<5[8:1],,,3,3/8,,1,,8v5[8:1],,,6,6/8,,7,,
{16}8v3[8:1],,,2,2/8,,1,,1-4[8:1],,,6,6/1,,7,,
{16}8v5[8:1],,,5,5/8,,2,,
{16}1h[8:2],,,,{12}E8/B7,E2/B2,B5/E6,3xh[8:3],,,{8},E7/B6,
{8}B2/E3/8hx[8:3],,,E5/B4,E1/B8/2hx[8:3],,,B7/B6,B2/B3/8hx[8:3],,,B5/B4,
{16}1x/2xh[16:3],,,B2/B3,,,5x,,
{16}7xh[16:3]/B5/E5,,,E1/B1,,,2,,3,4,2,5,1,6,8,7,
{16}1h[16:3],,,7h[16:3],,,5,,6/4,,3<6[8:1],,2,,1q5[8:1],,
{16},,7<3[8:2],,8,,3pp5[8:2],,B1/E1,,,,2<7[8:1],,,,
{16}4w8[8:1],,,,4,,,,1<6[8:1],,2,,3-8[8:1],,4-7[8:1],,
{16}3,,4,,2qq8[8:1],,2,,B5/E5,,,,6,,,,
{12}3/5,3/5,3/5,4/6,4/6,4/6,
{16}3xh[16:3],,,1h[16:5],,,8,,
{16}8h[16:3],,,6h[16:3],,,4,,5x/3h[16:6],,,4,,,1,,
{16}8h[16:4]/2,,,,6,8,6,8,5x/4,,{8}7,4/5,2,
{16}3,4,2,6,5,7,3,4,1bq4[4:3],,,,{4},,,,,,
{16},,,,3,4,,6,5,,2,7,3,
{32}8,7,6,5,4,,{16}2,5,3,6,8b,,,,7,5,7,3,7,5,7,1,7,5,7,3,6,4,6,8,6,4,6,2,6,4,6,8,6,4,6,2,8b,,,,2,4,2,6,2,4,2,8,2,4,2,6,2,4,2,8,2w6[8:1],4,2,8,2,
