&title=Per Aspera Ad Astra
&artist=xi
&first=0
&des=Ad Astra Per Aspera
&freemsg=
&genre=ゲームバラエティ
&cabinate=DX
&version=maimai DX FESTiVAL
&wholebpm=210
&clock_count=4
&des_5=Ad Astra Per Aspera
&lv_5=14+
&lv_6=14+
&inote_5=(210){1},{4},,,{8}8,1,
{1}2b<3[2:3]/7h[2:3],,
{2}5h[4:3]/2h[8:3],,3h[4:1]/8x,4x/6h[4:1],
{1}7>6[2:3]/2h[2:3],,
{4}8h[8:3]/2h[4:3],,,,1h[8:3]/7,{16}8,7,6,5,1,2,3,4,{4}8h[4:1],
C,{8}7/8,1/6,,1/2,8/3,,5/6,4/7,,3/4,2/5,,7/8,1/5,
,3/4,1/5,,1/2,4/8,,5/6,3/8,,3/7,5/1,,2/6,3/7,4/8,
{16}2/6b,,5,,3,7,3,7,2b,,1,,7,3,7,3,6b,,5,,3,4,3,4,1b,,3,,6,5,6,5,
8b/4hx[4:3],,D8,D7,D6,D5,D4,D3,E2,E1,E8,E7,E6,E5,E4,E3,1x,2x,3x,4x,5x,6x,7x,8x,1x,2x,3x,4x,5x,6x,7x,8x,
{1}1>8[8:5],{12}A7,A6,A5,A2,A3,A4,6,5,7,2x,1,3,
{16}8b/4b,,,,6,5,6,5,7-5[8:1],,7,,1-5[8:1],,1,,,,6,6,4-8[8:1],,,,4/5,,7x,,7x,,8hx[4:1]/1b,,
,,,,2,1,2,1,3v8[8:1],,4,,5,,6,,{12}7,8,7,2,1,2,6,5,6,3,4,3,
{16}2b/5b,,,,8,1,8,1,7,,8-4[8:1],,1,,2,,,,6,,1x,1x,1x,1x,2hx[8:1]/8hx[8:1],,,3hx[8:1]/7hx[8:1],,,4x/6x,,
3b/5b,,,,2,4,2,4,1b,,8-4[8:1],2,7,,8b/6x-2[8:1],,,,6b,,3,1,3,1,2h[4:1],,{24}1,8,7,6,5,4,3,2,1,
{16}4b/8b-4[8:1],,,,7/8,,6,,5,3,5>1[16:3],3,6,,7h[8:1],,,,8,,1hx[4:1]/7,,,,8,,7x/2x,,7x/2x,,3b/8h[4:1],,
,,2h[8:1],,1,8,7,6,5/4,,6h[8:1]/3,,8,1,2,3,5h[4:1]/4h[8:1],,,,1x,B1,6x,B6,2x,B2,7x,B7,1x,B1,8x,B8,
{4}3bhx[4:1],{12}8,7,6,{16}1,2,3/8qq4[8:4],4,58,,{8}8b/3bhx[4:1],,,3,2,1/8,{24}7,6,5,{16}3x,4x,2x,5x,
{16}1b,6,1b,5,1b,4,1bh[24:5],3h[48:7],,,{24}4,5,6,{8}7/3x,1bhx[16:3]/2bhx[16:3],,3b/8b,{16}7,6,5,4,1,2,3,4,5,6,7,8,
{4}1bpp4[4:6]/5bpp8[4:6],,,,,,,,,4h[2:1]/6-2[4:1],,,
1h[2:3]/3-7[4:3],,,,,{16}E7,B6,B5,B4,E4,,,,E3,,,,E2,,,,E1,,,,E8/E2,,,,E7/E3,,,,
{4}6h[4:3]/5b<4[2:3],,,,,{16}8,7,6,5,{4}4z8[4:3],,,8>5[4:3],7,6,
5s1[1:1],,,7h[4:3],,,,{16}4,3,2,1,5,6,7,8,1,2,3,4,1,8,7,6,5,4,3,2,
{8}1x/5,1x/5,,37,37,,8h[2:1]/4bV62[8:3],,,,,,
48,48,,26,26,,1h[2:1]/5bqq6[8:3],,,,,,
{8}37,37,,15,15,2,3b/7,{16}6,4,6,3,5,3,{12}4x,4x,2x,
{8}15,25,3,48,47,6,{16}1,5,1,5,2,6,2,6,3,7,3,7,
4b/8bx,5,6,7,8,1,2,3,4bhx[4:1]/7b,,,6,,,5,,3b/4b,,2,1,2,1,3,,7bhx[4:1]/4b,,,5,,,4,,
3b/7b,,6,4,5,3,4,2,1b,3,8,2,7,1,6,8,5b,2,4,3,7,8,6,2,8b,7,6,5,8b,1,2,3,
{8}4/6b,3b/7,2/8b,1b/5,3/7b,4/6,3b/5,2/6b,1b/7,4/8b,2b/6,3/5,4/6b,2b/8,3/5b,1b/7,
{16}8bh[2:1]/2b,,E3,E4,E5,E6,E7,E8,E1,B1,B2,E3,E7,B6,B5,E5,E2,B2,B3,E4,E8,B7,B6,E6,E5,B4,B3,E3,E7,B7,B8,E1,
{2}1hx[2:1]/Cf,3h[2:1],6h[2:1],4pp8[4:3]*qq8[4:3],,{4},2b/6b,
1h[4:1]/8b,{16}7,6,5,4,6pp2[2:1],5,4,3,{8}2b/6,,,3,4-8[8:1],5,4x/6v1[8:1],7,6x/3<6[8:1],4,
3x,7,{16}8-4[8:1],7,6,5,4/8x,,6,,1-5[8:1],2,3,4,1x-3[8:1]*-7[8:1]/5,,,,1x,,,,4x/6x,,3x/5x,,4,5,6,7,
1b/8h[4:1],,,,2,3,4,5,3qq7[2:1],4,5,6,{8}3/7b,,,6,5-1[8:1],4,2>5[8:1]/5x,3,2x/8,1,
{16}8x/2,7,6,5,4/1,2,3,4,5/8x,,,36,,,14,,2x-6[8:1]/5,,,,2/8x-4[8:1],,,,8/1xw5[8:1],,,,1b,,,,
7,8,7,8,6,1,6,1,5,2,5,2,4,3,4,3,5w1[8:1],,,,5,,,,4w8[8:1],,,,4,,,,
3b,4,3,4,2,5,2,5,1,6,1,6,8,7,8,7,1w5[8:1],,,,1,,,,8w4[8:1],,,,8,,,,
2b/6b,,1,7,1,8,2,8,3b,7,3,7,4,6,4,6,5b-1[8:1],,,,5/7b-4[8:1],,,,7/2b-5[8:1],,,,2/8b-4b[16:1],,,,
1bh[16:3],,,3hx[16:3],,,2,,7bh[16:3],,,5h[16:3],,,6,,5b/7b,,,2b/4b,,,1b/8b,,2b/7b,,{24}3,4,5,6,7,8,1,2,3,
{16}4h[4:1]/5b,,,,7,8,1,2,8qq4b[2:1],1,2,3,{8}4b/8,,,1,2v5[8:1],3,2/8<5[8:1],1,38,2,
{16}1,,2h[8:1]/4bh[8:1],,,5h[8:1]/7bh[8:1],,,1h[8:1]/3bh[8:1],,,6h[8:1]/8bh[8:1],,,2/7b,,1,,3bh[8:1]/4h[8:1],,,5h[8:1]/6bh[8:1],,,4b/7,,8,1,7,2,6,3,
4b/5h[4:1],,,,2,1,8,7,1pp5b[2:1],8,7,6,{8}5b/1,,,8,7v4[8:1],6,7/1>4[8:1],8,16,7,
{16}18,7,6,5,48,1,2,3,4b/7b,,,2b/5b,,,1b/8b,,2b/7b,,3,6,4,5,3,6,2b,7,1,8,{32}2,3,4,5,6,7,8,1,
{16}2b/6,,5,4,6,3,4,3,5,4,6,3,7,2,8,1,7,6,5,4,1,2,3,4,8,7,6,5,8,1,2,3,
4b/8,,4,5,3,6,5,6,4,5,3,6,2,7,1,8,2b,3,4,5,1,8,7,6,8b,1,2,3,8,7,6,5,
4b/8b,,1,5,2,6,3,7,4b,8,3,7,2,6,1,5,2b>5[8:1],,5,5,2b-6[8:1],,6,6,2b<7[8:1],,7,7,2b,,6,5,
2b/4x,,,18,,,18,,5x/7b,,,46,,,35,,{12}2b,2,2,8b,8,8,6b,6,6,4b,4,4,
{4}2bh[2:1],,C,8h[1:1]/2z6[4:3],,,,,
5x<4[2:9]/E4,B3,,,B7,E8,,,
B2,E2,,,E6,B6,,,
E7/B7,E8/B8,,,Chf[1:1]/B3/E3,B1/E2,,,
1bw5b[8:1],,8bw4b[8:1],,{8}26,,48,,37,37,26,26,
C,,4b/8,3b/7,6,1b/5,8b/4,3,6b/2,5b/1,8,3b/7,2b/6,5,{16}1b,8b,1b,8b,
{8}2,7b/3,6b/4,5,2b/6,1b/7,8,5b/1,{16}3b/7,4,5,6,1,2,3,4,7b,8,1,2,5,6,7,8,
{8}1bx/5bx,1x/5x,48,48,37,37,26,26,{12}5b,1,1,6,2,2,{8}7,6,45,45,
{16}3b,4,3,4,2,5,2,5,1,6,1,6,8b,7,8,7,{32}1b,,,,1h[8:1]/8x,7x,6x,5x,4x,,,,8h[8:1]/1x,2x,3x,4x,5x,,,,8h[8:1]/7x,6x,5x,4x,3x,,,,1h[8:13]/2x,3x,4x,5x,
{1}6bx-2[4:3],,
{16}1b/7b,,2,5,3,6,4,7,3b,6,3,6,2,5,2,5,1b,2,3,4,5x/8b,7,6,5,{32}4x/1b,2,3,4,5,6,7,8,5x-1b[16:1]/1b,2b,3b,4b,5b,6b,7b,8b,
{1}5b/1b`B5`Cf`B1,,,,E
