&title=トリックハート
&artist=MIMI
&first=0.657
&des=IsxI
&lv_5=13+
&inote_5=(150)
{8}5,4,{16}6/3h[16:3],,,6h[16:3],,,4h[16:6],,,,5,,5-8^1-4^5[16:8],,,,1h[8:4],,,,,,,,,,2,,2,,,,6/2h[16:3],,,3h[16:3],,,4h[16:6],,,,5,,5qq8[16:7],,,,5h[8:3],,,,,,,,,,
{8}1,7,3,5pp5[16:5]*qq5[16:5],,5x,,,,3,5,4pp5[16:5]*qq3[16:5],,4x,,,,4,4,
{16}5-8[8:1],,,3,,,1x-4[16:2],,,,7,,6-2^7[16:6]*-2^5[16:6],,5,,,,,,,,,,,,5x/7x,,5x/7x,,,,
{8}6h[8:2]/4h[8:1],,,35,5h[8:2]/3h[8:1],,,24,2h[8:2]/4h[8:1],,,35,35,,1,8,7-4b[8:1]/3-8[8:1],,,,
15,5,2,6h[8:5],5,5,5h,5h,5-1[12:1],,2b,,
{16}3bx/8bx,,5,4,6h[8:1],,1,,24,,8,,46,,3,,24,,5,3,6,,47,,5/8^5[8:1],,,,48,,3,,24,,3,5,4>7[8:2],,35,,4/1xh[8:2],,,,,,5,,3-6[12:1],,1,,7^4[12:1],,8,,3,,2h[8:1],,1b,,,,3xb/8xb,,7,4,5,,1,,24,,3,,47,,6,,3-8[8:1]/5,,3,,7-3[8:1],,7,,1,,,,2v5^3[8:2],,1,,28,,,6xh[16:3],,,8,,2V46[8:2],,8,,6>2[32:7],,7,,1s5[32:7],,8,,7,,6,,6h[8:2],,8x,,8x,,,,2b/6b,,3,5,4,5,3,4,2-6[8:1],,1,,8,,7,,3,5,4,5,3,,3,4,2-6[8:1],,1,,8,,7,,3,,3,5,4,,35,,4-8[8:1]/2^5[8:1],,,,2x/4x,,,,1,,28,,7/3-6[8:1]*^6[8:1],,,,3x,,,,8,,1,,2b/7b,,3,5,4,,35,,2^5[8:1],,4,,2-6[12:1]b,,1,,2,,7,8,7,,1,,2-6[8:1],,8,,2^5[8:1]b,,4,,2,,6,,6-1[8:1]b,,4,,3,,3,,5pp5[8:2]b,,46,,7xh[16:3]/5xqq5[32:7]b,,,,,,8,,8-3[8:1]b*-5[8:1]b,,,,B6/B2/Cf,,,,
2xb/6xb,,3x,5x,4x,,E2,,4x/5x,,B8,,4x/6x,,E7,,7x,,7x,5x,8x,,1x,,A6/E5,,2x,,B5/E3,,1x,,2x,,2x,4x,3x,,5x/B2,,3x/8x,,B3/B5,,2x/6x,,E5/E6,,3x/5x,,2x,4x,2x,,8x/1x,,8xh[8:2]/7x,,B5/E6,,B3/E3,,,,1xb/5xb,,4x,6x,3xh[8:1],,A2,,4xh[8:1]/5x,,B2,,5x/6xh[8:1],,B7,,7x/8x,,A6/B6,,8x/1x,,A5/B5,,1x/2x,,A4/B4,,1x/8x,,A3/B3,,2x/4x,,3x,5x,4x,,1x/7x,,1x/7xh[8:1],,{24}1x,3x,7x,{16}5xh[8:1],,4x,,3xh[8:1]/6x,,E5,B2/B3,B7/B8,,1xh[8:1],,8x,,2x/7x,,2x/7x,,,,
34,,,3,4,,3h[8:2],,4,,,,43,,3,,34,,,3,4,,3h[8:2],,4,,,,35,,4,,
65,,,6,5,,6h[8:2],,5,,,,56,,6,,65,,,6,5,,6h[8:2],,5,,,,46,,5,,
2-4[8:1]/4,,,,1,,,,8,,1,,17,,8,,7-5[8:1]/8,,,,5,,,,4,,5,,45,,3,,
2-4^5-7-5^4-2[8:12]/7,,,1,,,1h[8:2],,,,,,1,,1,,8,,,8,,,8h[8:1],,,,1,,1,,,,
3/6h[16:3],,,5h[16:3],,,4h[8:1],,3h[8:1],,5h[8:1],,B2/A2/E3,,,,
3h[16:3]/6,,,4h[16:3],,,5h[8:1],,6h[8:1],,4h[8:1],,B2/A2/E3,,,,
3/4-8[8:1],,,,,,,,1-6[8:1]/7-2[8:1],,,,,,,,4h/5,,5h/4,,4h/5,,5h/4,,4h/5,,E3/E4,,E6/E7,,,,
2b/8b,,3,5,4-1[8:1],,28,,7^4[8:1],,6,,8,,1,,23,,8,1,7^5[8:1]*-2[8:1],,68,,7,,,,3qq8[32:10],,4,,35,,,7,7x<3[16:4],,1,,3b<7[8:2],,,,8,,8,,1v6[8:1],,2,,1^4[8:1]*q5[8:1],,,,1x,,,,6h[8:1],,5,,7b/4b,,6,3,5,,18,,7/2^5[8:1],,5-1[8:1],,2,,7,,7-3[8:1],8,6,8,7,,1,,24,,,,3-8^2-5[16:5],,4,,35,,,6,6-1[8:1],,8,,2v5[8:1],,3,,8,,7,,46,,2,4,3q7[8:1]*v8[8:1],,24,,3x,,,,15,,,,
2b/6b,,3,5,4,,3,4,2-6[8:1],,8^5[8:1],,2,,8,,3,4,2,4,3,,3,4,2-6[8:1],,8^5[8:1],,2,,8,,3,,3,5,4,,15,,2^5[8:1]/6-1[8:1],,,,2x/6x,,,,48,,37,,6-3[8:1]/2-7[8:1],,,,2b/6b,,,,8,,1,,2b/7b,,3,5,4,,35,,2^5[8:1],,7-1[10:1]*-1[10:1],,2-6[12:1]b,,7,,2,,7,8,7,,15,,2-6[8:1],,1-7[10:1]*-7[10:1],,2^5[8:1]b,,1,,2,,6,,7-3[8:1]b,,8,,17,,2,,4qq4[8:2]b,,53,,7xh[16:3]/4xpp4[32:7]b,,,,,,1,,1-4^6[32:5]b,,,,1b/8b,,,,
{8}1x/A4,2x/B4,3x/B1,4x/A1,1x/A4,2x/B4,3x/B1,4x/A1,1x/A4,2x/B4,3x/B1,4x/A1,1x/A4,2x/B4,3x/B1,4x/A1,1x/A4,2x/B4,3x/B1,4x/A1,1x/A4,2x/B4,3x/B1,4x/A1,1x/A4,2x/B4,3x/B1,4x/A1,5x,3x/7x,3x/7x,,8x/A5,7x/B5,6x/B8,5x/A8,8x/A5,7x/B5,6x/B8,5x/A8,8x/A5,7x/B5,6x/B8,5x/A8,4x,6x/2x,6x/2x,,1x/A4,2x/B4,3x/B1,4x/E1,5x/A1,6x/B2,7x/B3,8x/D5,1x/E5,2x/B6,3x/B7,4x/D8,5x/A8,6x/B8,7x/B5,8x/A5,1xb>8[8:11],,,,,,,,,,,,3h[8:2],,4h[8:2],,5h[8:2],,,,4h[8:2]/6h[8:2],,,,3h[8:2]/5h[8:2],,,{24}3x,2x,1x,{8}7,8,6,1,5h[8:1],,5h[8:1],,5h[8:1],,5h[8:1]/4h[8:1],,3h[8:1],,3h[8:1],,3h[8:1],,3h[8:1]/5h[8:1],,4,4,5,5,3,3,6,6,{16}2,,6,5,7,,2,1,2,,8,1,8,1,8h[32:12],{64}2xh,3xh,4xh,5xh,6xh,,,,,,,,,,,,,,,,{16}1b,,,,
2-6[8:1],,35,,62,,7,,58,,7,4,6,,15,,3h[8:1]/7h[8:1],,,,6/4-1[8:1],,35,,46,,7,8,6qq1[8:2],,37,,5bh[8:2],,,,,,4,,2-4[10:1],,6^1[8:1],,2-6[8:1]b,,6,,2,,8x,,8xb,,,,2b/5b,,3,6,4,,17,,8/2-5[10:1],,4,,8-5[10:1],,6,,2-5[10:1],,4,,8-4[10:1],,6,,1xb,,,,13,,24,,35,,,6,4^1[8:1]b,,7,,8b-4[8:1],,7,,6,,5,,3,,2,,1-4[8:1]/4-1[8:1],,8,,,,,,3x/7x,,,,
4b/6b,,4,6,3,5,3,5,2-4[10:1],,6-8[10:1],,2-6[10:1]b,,6,,2b,,7,5,7,,3,4,2-4[10:1],,6-8[10:1],,2-6[10:1]b,,6,,2b,,7,5,7,,48,,7^4[8:1]b/3b^8[8:1],,,,73,,,,1bv4[8:1]/5v8[8:1]b,,26,,1/5b,,,,3b/7b,,,,45,,36,,2b/7b,,3,5,4,,26,,7^5[10:1],,3^1[10:1],,7-3[10:1]b,,3,,7b,,1,4,2,,15,,7^1[10:1],,3^5[10:1],,7-3[10:1]b,,3,,7b,,4,
,1^6[8:1]b/3,,2,,1b/7b,,5,,4pp4[32:7]b*qq4[32:7]b,,35,,4b,,,,,,4b/8b-3[12:1]b*-5[12:1]b,,2b/6b-2b[12:1],
