&title=PEACEKEEPER
&artist=STEREO DIVE FOUNDATION/TVアニメ「転生したらスライムだった件」第3期OPテーマ
&first=0.56
&des=Ragna
&wholebpm=200
&demo_seek=56.7
&demo_len=19.8
&des_5=Ragna
&lv_5=13+
&inote_5=(200){8}
3V17[4:3],,4,,4,,4,,
5V71[4:3],,2,,2,,2,,
3V51[4:3],,8,,8,,8,,
7-3-5[4:3],,2,,2,,2,,
1-5-1[4:3],,6,,6,,6,,
5-1[2:1],,,,,,,,
,,,,,,,,
2-6[8:1],,5>1[4:1],,7,7,,7-3[8:1],
,4,4V68[4:1],,2,2,,2-6[8:1],
,5,5^3-1[4:1],,7,7,,7-3[8:1],
,4,4,,34,25,16,78,
1-5[8:1],,6>1[4:1],,8,8,,8-4[8:1],
,3,3V58[4:1],,1,1,,1-5[8:1],
,6,6-4^1[4:1],,8,8,,8-4[8:1],
,3,3,,45,36,27,18,
2x/7xh[4:5],,B4,,B2,,B6,,
B1,,B5,,6x/4x,3x,5x,2xh[8:7]/6x,
,,B4,,B1,,B6,,
4x/3x,,2x/1x,3x/8x,,2x/5x,,6x/4x,
7xh[4:5]/3x,,B5,,B2,,B4,,
B6,,B8,,2x/6x,5x,4x,3xh[8:7]/8x,
,,B5,,B8,,4-8[4:1],,
,,,,{16}1,8,1,8,1,8,{8}E1f,
,,3h[8:1],5,3h[8:1],2,3h[8:1],4,3h[8:1],1,
3,7-3[8:1],,1s5[4:1],,4,
,,6h[8:1],4,6h[8:1],7,6h[8:1],5,
6h[8:1],8,6,2-6[8:1],,7pp4[8:3],,5,
,,3,3V52[4:1],,,6pp4[8:3],6,
,,3,3V51[4:1],,5,,8,
,7<8[2:1]/2,7h[8:5]/2,,,,,,
,,C,,{16}3,5,3,5,4,6,4,6,{1}
3-7-4[32:32],
4z8[32:32],
8^3-5[32:32],
5V37[32:32],
7v6-4[32:32],
4V68[32:32],
8<3[32:32],{8}
3-5-2-8[8:5],,,,7b-3[8:1],,,,
4h[4:1]/1,,3,2/5h[4:1],,4,37,,
5h[4:1]/8,,6,7/4h[4:1],,5,62,,
7h[4:1]/1,,5,6h[4:1]/3,,5,73,,
2h[4:1]/8,,4,3h[4:1]/6,,4,2-6[8:1]/6,,
8-2-6-4[8:11],,,,,,,,
,,,,,E1,C,,
2^3-5[8:1]/5,,26,7-3[8:1],,73,,24,
1-5[8:1]/5,,1/8h[4:1],,{32}4x,3x,2x,1x,8x,7x,6x,5x,{8}4bx/Cf,,
7v4[8:1],2-5[8:1],7,2,7-3[8:1],1-5[8:1],7,1,
8-3[8:1],,4,4^1[8:1],,45,,8,
2-5[8:1],6-1[8:1],2,6,3-5[8:1],6-1[8:1],3,6,
2-6[8:1],,4,4q8[8:1],,43,,1,
7V58[4:1],,5,4,3-8-2[4:1],,6,5,
4-6-1[4:1],,1,2,3-6-4[4:1],,6,7,
8^3-7[32:16],,3,,7^4-8[32:13],,4,,
1h[2:1],,,,{24}8x,2x/7x,3x/6x,{8}4x/5x,2b/7b,,
1-5[8:1],7-4[8:1],1,7,2^3-5[8:1],7-3[8:1],2,7,
2-6[8:1],,5,5^8[8:1],,54,,1,
7-4[8:1],3v8[8:1],7,3,7v4[8:1],3-1[8:1],7,3,
8-3[8:1],,5,5p1[8:1],,56,,8,
2V46[4:1],,6,7,8-4-6[4:1],,4,3,
2-6-4[4:1],,7,8,1V73[4:1],,3,2,
1^6-2[32:16],,6,,2^5-1[32:13],,5,,
8h[2:1],,,,{24}1x,2x,3x,4x,5x,6x,7x,8x,1x,2x,3x,4x,{8}
5x<4[4:3]/6xh[2:1],,,,,,,,
7xh[8:3],,,5xh[8:3],,,4xh[4:1],,
2-4[8:1],5,2,8,2-5[8:1],4,2,1,
2-6[8:1],3,2,8w4[8:1],,8,,,
3xh[2:1]/4x>5[4:3],,,,,,,,
2xh[8:3],,,4xh[8:3],,,5xh[4:1],,
7-5[8:1],4,7,1,7-4[8:1],5,7,8,
7-3[8:1],6,7,1-5[8:1],,15,,{24}8x/4x,7x/3x,6x/2x,{1}
5bxqq4<3pp4[4:11]/1bxh[16:47],
,
,
,
E
