&title=星降る海
&artist=Aqu3ra feat. 八千代(cv:早見沙織)
&first=-0.01
&des=neoLItHIC '嵌如dIssKY'
&lv_5=14
&des_5=neoLItHIC '嵌如dIssKY'
&inote_5=
(101){16},,,1qq5[1:1],,,,2,,,,3,,,,4-2[4:1],
,,,4,,,,A2,{48},,{24}8/1,,,7,,,5/6<1[24:5],,,{12}4,
{24},3h[4:1]/6-3-1-5[12:7],,,,,,,,,{12}4,{24},1h[2:1],{4},,{16},{64},{192},3,
4,{16},{64},,,{192},{24}2,{192},,,,,,,,,,,,,,,,6-8-4[24:5],5,{16},{64},,,{192},{24}8-5[12:1],,,{12}6<1>6b[8:5],,,2,
{24},3,,,,,,,,,,,,1h[8:3],,,{12}8-5[8:1],,,8,
{24},2,,,2/7-3[12:1],,,8,,,{12}7/1-5[12:1],{24},2,,,1/8-4[12:1],,,6,,,{12}8/2w6[12:1],
{24},3,,,{6}2,{12},Ch[48:1],{24},6/3,,,4h/5h,,,4/6,,,{12}4h/2h,
{24},6/8,,,{6}8bh[8:7]/3h,{24},,,,,,,,,,,,,,,,,1,
{192},,,,,,,,,,,,,,{64}8bx/1bx/E8f/E2f,7x/2x,6x/3x,5x<5-3-1-7-5>4[64:227]`4x>4-2-8-6-4b[64:227],{1},,,{4},,,{16},,,{32},{16}1,
,,{8}8-5[12:1],{16}8,2,{8}8-3[12:1],{16}1,7h[16:1],{8}8,
{16}1,8,7,6/5b,,,{8}1-4[12:1],{16}1,7,{8}1-6[12:1],{16}8,2h[16:1],{8}1,
{16}8,1,2,3/4b,,,{8}4-1[12:1],{16}4,6,{8}4-7[12:1],{16}5,3h[16:1],{8}4,
{16}3,2,1,8/7b,,,{8}5-8[12:1],{16}5,3,{8}5-2[12:1],{16}4,6h[16:1],{8}5,
{16}5,6,7,8/2b,,,{8}4h[16:5],{16},6,,,8,,,3/2-5[16:1],
,2/4,,2/5,,6h,2,7h,,6h/3-7[16:1],,5h,2,,,B3h[16:0]/E3h[16:0]/E4h[16:0],
,6/C,6,2/6>3>2[4:1],,A5,,2<6[4:1],,A8,,5<6>3[4:1],,,,D6,
,2,,1,2,3,4,5/1b,,8,7,6-2-6[16:3],5/1,2,3,6b/A4,
C,A3,A2,C,,,{8}5h[16:5],{16},3,,,1,,,6/7-4[16:1],
,7/5,,7/4,,3h,7,2h,,3h/6-2[16:1],,4h,7,,,Cf,
,3,3,7/3<6<7[4:1],,A4,,7>3<4[4:1],,A1,,4<6[8:1],,,,E1,
,7,,8,7,6,5,4/8b,,1,2,3-7-3[16:3],4/8,7,6,3b/A5,
A6,A8,{8}A1,{24},,,,{12}4-2[16:1],{24},4-8[16:1],,,{3}4-6[16:1],
{24},7/4-7[16:1],,,6,,,2/4-1[16:1],,,{12}3-8[48:5]*-6[48:5],{24},4/7,,,{3}3,
{48},,,{16}6x,4,5x,3,3x,5,5x,2,2x,4,4xh[48:11],{48},,,,,,,,{12}8,
{24},2,,,{6}5-8[12:1]/4-1[12:1],{12},5b>1b[6:1]`4b<8[6:1],{24},6/3,{48},,,,,,,,,,,,,,,,,{16}6,
3,6,{48},,,2/6,1/5,8/4,{8}7/3h[16:5],7>2<6[16:3],{48},,,7x<4[64:5],4/8,5/1,{8}6/2,{64},,,,,,,,,,,2,,,,2,
,,,2,{16},,{48}7/3,8/4,1/5,{8}2/6h[16:5],2<7>3[16:3],{48},,,2x>5[64:5],5/1,4/8,{8}3/7,{16},6,,8,
,3/7,,3,,6-2[16:1],{8}5/7,{16},3/6,,4h[4:1],,,,8h[4:1],
,,,4,7,3,6,2,5,1b,,C,,4,5,4,
6,4,7,8/3bh,,,,7bh/4bh,,,,3,,6w2[16:3],,3,
,,,,,B1/B2/E3,,4pp4[6:1]*qq4b[6:1],,E6/E4,,A4f,{48},,,,,,,,{24}1,2,
3,4,5,6,{6}7/8bw4[12:1],{24},,,,,C/B6/B2,,,7/8,,,5/6-1[12:1],4,3,{12}2/7,
{24},6/1,2,3,4,5,{12}6h[6:1],,7,{24},1/2-6<8[24:5],3,4,5/6,,,2/8,,,{12}5,
{24},5,6,7,8-3[12:1],1h[12:1],,6,,,8/7,6,{16}5,2x-7[16:1]/6x-3[16:1],{4},{16},,{24},4/3,
{48},,,,1/2,8,{24}7,,5/6,{48},,,,8/7,1,{24}2,,5/4,{48},,,,1b/8h[16:1],2,3,4,,,{24}8/1,{48},,,,8b/1h[16:1],7,6,5V71[48:7]*V31[48:7],
,,{24}8/1,{48},,,,8b/1b,7/2,6/3,5/4,,,,,,,,,,,,,,,{24}C`B7h[48:0]`B6h[48:0]`B3h[48:0]`B2h[48:0],,,2/1,,,4/3-8[12:1],5,6,{12}7/2,
{24},3/8,7,6,5,4,{12}3h[6:1],,2,{24},8/7-3>1[24:5],6,5,4/3,,,7/1,,,{12}4,
{24},4,3,2,1-6[12:1],8h[12:1],,3,,,1/2,3,{16}4,7x-2[16:1]/3x-6[16:1],{4},{16},,{24},5/6,
{48},,,,8/7,1,{24}2,,4/3,{48},,,,1/2,8,{24}7,,4/5,{48},,,,8b/1h[16:1],7,6,5,,,{24}1/8,{48},,,,1b/8h[16:1],2,3,4V28[48:7]*V68[48:7],
,,{24}1/8,{48},,,,1b/8b,2/7,3/6,5/4,,,,,,,,,,{16}Cf/B7/B6/B2/B3,,2V46[8:1],,6,,2V86[8:1],,8,
,2V46[8:1],,5,,2-7[12:1],,2-5[32:3],,2x,,2x,,8,,2/7,
,3/6,7-4[16:1]/2-5[16:1],8/1,,,,,,7V53[8:1],,3,,7V13[8:1],,2,
,7V53[8:1],,4,,7-2[12:1],,7-4[32:3],,7x,,7x,,1,,7/2,
,5pp8[16:3]/4qq1[16:3],6/3,8/1,,,,,,7-2[16:1]/3-6[16:1],,7/3,,7/3,,5p1>5[16:3]/1p5<1[16:3],
,4/8,,1/5,,,,2,,7,,3/6,,,,6-2[16:1],
,3,,6,,,,C,,6,,4,,5/6,4/5,4/3,
2/1,8/7,{48},,,1,,8,,1,,8,,1,,8,,1,,8,,1,,8,,1,,8,,1,,8,,1,,8,,1,,8,,{16}1,
,1bh[4:3]/8<8[0.5941##4.3564]*-6-4-2-8[0.5941##4.3564],{1},,{16},
1,,,{8}8-5[12:1],{16}8,2,{8}8-3[12:1],{16}1,7h[16:1],{8}8,
{16}1,8,7,6/5b,,,{8}1-4[12:1],{16}1,7,{8}1-6[12:1],{16}8,2h[16:1],{8}1,
{16}8,1,2,3h,,,{8}7/C,{16},4,,7,C,,,6/C,
,,,8/B5,,4,B2,5,,5/C,,2,{64},,,,,,,,,,,,B7,C,{32}B3,
,,{16}7,2,7,,4/5,,3/6-3[48:5],,8/1,,,,7,,8-6[16:1]*-2[16:1],
,2,,8-3[16:1]*-5[16:1],,,,8w4[8:1],,,,8,,A4,,7/2,
,,,B3/C/B7,,,{8}2/C,{16},5,{32},,2,C,,,,,,3/C,,,,,{16}5,
,1/B4,,5,B7,4,,4/C,,7,{64},,,,,,,,,,,,B2,C,{32}B6,
,,{16}2,7,2,,5/4,,6/3-6[48:5],,1/8,,3,{96},,,,,,,,,,,,,,,,,1-3[16:1]*-7[16:1],,,,,,,,,,,,7,
,,,,,,,,,,,1-6[16:1]*-4[16:1],,,,,,,,,,,,,{16}1,{96},,,,,1w5[8:1],,,,,,,,,,,,,{16}1,{96},,,,,1,,,,,,,,,,,,A5,,,,,,,,,,,,,{16}2/7w3[16:1],
,,,,,,,8-5[12:1],,8,,A8,,,,,,8-5>4[8:1],
,8,,8,,1,,8-5q4[6:1],,8,,,,,,8-5[12:1]/1v4[12:1],
,8/1,,8/1,,3q4<5[24:5],,8,,3,,7,,6,
,8v5[12:1]/2v5[12:1],,2h[24:1]/8h[24:1],,,,1qq5[24:5],,2qq5[24:5],,1,,,,7,
7,7,{48},,,8/4h[16:1],1,2,{8}3,{48}1/5h[16:1],8,7,6,,,,,,1h/7h,2h/6h,3h/5h,{8}4h,{16},,,8,
4h[16:1],1,{48},,,2/4h[16:1],1,8,{8}7,{48}7/5h[16:1],8,1,2,,,,,,5xh[48:1]/4xh[48:1]/E6/E4,B6/B3,B7/B2,{8}E8/E2,{16},8<5[12:1]/4>1[12:1],,5/1-4[16:1],
,4/8-5[12:1],,3x,,8x/6-2[16:1],{8}6x,{16},6/8,,6,,,,5b,
4,3,2,1/5bh[2:1],,,,,,,,,,8/7,,1/6,
,2/5,,3/4,,,,3/4,,,,3,4,2,5,1,
,,,1h[8:1],,B5/B6,,1h[8:1],,B4/E4,,8h[8:1],,E6/B5,,8h[8:1],
,E4/B4,,2h[8:1],,B6/B5/E6,,1h[8:1],,E4/B3/B4,,7h[8:1],,B6/E6/B5,,8h[8:1],
,E4/B3/B4,,5h[8:1]/3h[8:1],,,,1h[8:1]/7h[8:1],,,,2h[8:1]/8h[8:1],,,,6h[8:1]/4h[8:1],
,,,5h[16:1]/3h[16:1],,7h[16:1]/1h[16:1],,1-5[16:1],,8-4[16:1],,1-3[16:1],,8-6[16:1],,1v6[16:1]*-4[16:1],
,8,,1,,,,6,5,7,,8h[8:1]/3h[8:1],,,,3,
4,2,,7h[8:1]/1h[8:1],,,,5,3,5,3,6,2,6,2,7,
1,7,1,8,,,,6,4,6,4,7,3,7,3,8,
2,8,2,1bh[#1.782181],,,,,,,,,,,,2,
,Cf/B5/B7/B3/B1/B6h[16:0]/B2h[16:0]/B8h[16:0]/B4h[16:0]/7bxp5>4>1<7<5[16:9],,,,,,,,,,,,,,7bv4[16:1]/1bv4[16:1],
,,,7b/1b<4[8:1],,,,,,7,,8v5[16:1]/2v5[16:1],,1/3,,8/2,
{48},,,8/1>3<5[8:1],,7,,6,,{16}5<1b[48:5],,,,E1,,4<7[8:1],,7>2[8:1],,2>5[8:1],,3,
{48},,,B1,,E3,,B4,,B5,,E7,,B8,,6/A1,,A2,,A3,,8/A4,,A5,,A6,,3/A7,,4,,5,,6,,7,,8h[8:1],,,,,,,,,,,,,,{16}8<4[4:1],
,C,,4>8[4:1],,C,,8<4>2[0.5941##0.8911],,C,,,,2<8[0.5941##0.297],
,8-5>4b[0.5941##0.297],,4-1[16:1],,,,,,7-1[16:1]/4-2[16:1],,6/5,,7/4,,5-8[8:1],
{48},,,2,,3,,4,,{16}5,,,,C,,5>2[8:1],,2<7[8:1],,7<4[8:1],,6,
{48},,,B8,,E7,,B5,,B4,,E3,,B1,,3/A8,,A7,,A6,,1/A5,,A4,,A3,,6/A2,,5,,4,,3,,2,,1h[8:1],,,,,,,,,,,,,,{16}1>5[4:1],
,C,,5<1[4:1],,C,,1>5<7[8:3],,C,,,,7>1[8:1],
,1q3b[8:1],,3<8b[12:1],,A1f/Cf,{48},,,,,,,,,3b,,4,,5,{24}7b,8,1,2,3,4,{12}5,
{48},,,{16}5/6,{48},,,2/1,3,4,,,,{16}8/1,{48},,,8/7,6,5,,,,{16}8-4[16:1]/1-3[16:1],,8/1,,8-6[16:1]/1-5[16:1],,6x<8-6-1b[4:1]`2x>4-2-5[4:1],
,1x/8x,,A6/A2,{48},,,,,,,,,,,,,,,6b,,5,,4,{24}2b,1,8,7,6,5,{12}4,
{48},,,{16}4/3,{48},,,7/8,6,5,,,,{16}1/8,{48},,,1/2,3,4,,,,{16}1-5[16:1]/8-6[16:1],,1/8,,1-3[16:1]/8-4[16:1],,1-4-1[16:3]/8-5-8[16:3],
,8/1,,8/1,{48},,,,,,,,,,,,,,,3,,4,,2,,5,,1,,6,,8,,7,,,,{16}B5h[4:3]/E5h[8:5]/B4h[2:1],
,8-3[16:1],,7,,8-5[16:1],,1,,8,,1,,,,3-7[16:1],
3,1,1,1/3,,,,E1,,E8/E2,,E3h[8:11],,E4h[4:5],,E5h[8:9],
,E6h[1:1],,E7h[8:7],,,,,,,,,,,,,,B5f/B4f,
{48},,,8bx/1bx,7bx/2bx,3bx-1-7-5-3b[48:155]`6bx-8-2-4-6[48:155],{4}5bx>5>3[24:77]/4bx<4<6[24:77],{1},,,{4},{16},7,
,7/2-6[12:1],
,1,,2/8-4[12:1],,7,,8/1-5[12:1],,3,,1/7-4[12:1],,6,,7/3-5[12:1],
,2,,3/8-4[12:1],,6,,8/1-5[12:1],,3,,1/8,,8,8,7,
7,6,6,5,,3,3,2,2,1,1,4-8[8:1],,8-4[8:1],,4/1h[8:1],
,A8,{48},,,1,,2,,3,,4,,5,,6,,7,,8,,1,,2,,3,,4,,5,,6,,7,,8,,1,,2,,3,,4,
,5,,{16}6/1b,
E
