&title=永遠の春夢
&artist=上海アリス幻樂団
&first=0
&des=sqo
&des_6=
&lv_6=14
&inote_6=(179)
{1},
{1},
{4}6h[8:1],5h[8:1]/6h[8:1],6h[8:1],5h[8:1]/6h[16:3],
{4}3h[8:1],4h[8:1]/3h[8:1],3h[8:1],4h[8:1]/3h[16:3],
{4}6h[8:1],4h[8:1]/6h[8:1],6h[8:1],4h[8:1]/6h[16:3],
{4}3h[8:1],5h[8:1]/3h[8:1],3h[8:1],5h[8:1]/3h[16:3],
{4}6h[8:1],5h[8:1]/6h[8:1],6h[8:1],4h[8:1]/6h[16:3],
{4}3h[8:1],4h[8:1]/3h[8:1],3h[8:1],5h[8:1]/3h[16:3],
{4}6h[8:1],5h[8:1]/7h[8:1],6h[8:1],4h[8:1]/7h[16:3],
{16}3h[8:1],,,,42,,3,4,3,,5,4,5,,6,,
{16}6,,65,,6,,65,,6,,64,,6,,6,5,
{16}4,,34,,3,,34,,3,,35,,3,,3,4,
{16}5,,75,,7,,75,,7,,74,,7,,6,5,
{16}4,,24,,2,,24,,2,,25,,2,,3,4,
{16}5,,75,,7,,75,,7,,74,,7,,6,5,
{16}4,,24,,2,,24,,2,,25,,2,,3,4,
{8}5,64,3,25,6,37,26,37,
{8}2V83[4:1]/6-4[8:1],,26,,5,6,1,2,
{8}3-1[8:1],3,7-5[8:1],7,8-4[8:1],8,7-3[8:1],7,
{8}1<2[8:3],,,,,,6,7,
{8}8-6[8:1],8,2-4[8:1],2,1-5[8:1],1,2-6[8:1],2,
{8}8>7[8:3],,,,,,3,2,
{4}2pp4[8:1]/8qq6[8:1],28,7qq5[8:1]/1pp3[8:1],71,
{8}46,7,35,2,1-5[8:1]/8,,18,7,
{8}6-1[8:1],5,2-6[8:1],3,8-4[8:1],7,1>8[8:3]*<2[8:3],,
{8},,,,7,6,4,3,
{8}6-8[8:1],6,2-4[8:1],2,1-5[8:1],1,2-6[8:1],2,
{8}8>7[8:3],,,,,,3,2,
{8}1-3[8:1],1,7-5[8:1],7,8-4[8:1],8,7-3[8:1],7,
{8}1<2[8:3],,,,,,6,7,
{4}7^4[8:1]/1^4[8:1],71,2^5[8:1]/8^5[8:1],28,
{8}53,2,64,7,8-4[8:1]/1,,81,2,
{8}3-8[8:1],4,7-3[8:1],6,1-5[8:1],2,8pp8<2b[4:3],,
{8}8b/1bh[4:3],,,,,,,,
{4}8h[1:1],,,2,
{1}2h[1:1],
{4}4h[1:1],,,6,
{2}6h[2:1],8h[2:1],
{8}2,4,2,4,3,5,3,5,
{8}4,6,4,6,5,7,5,7,
{8}4,6,5,7,4,6,3,5,
{8}2,4,3,5,2,4,3,5,
{16}2,,24,,35,,35,,46,,46,,57,4,3,2,
{16}1,,17,,28,,28,,13,,13,,13,8,7,6,
{16}5,,25,,36,,36,,47,,47,,58,4,3,2,
{16}1,,16,,27,,27,,38,,38,,14,8,7,6,
{24}5,,,36,,,47,,,58,,,47,,,36,,,25,4,3,2,1,8,
{24}7,,,16,,,27,,,38,,,27,,,16,,,85,7,6,5,4,3,
{8}2h[8:1]/6,6,7h[8:1]/4,4,2h[8:1]/5,5,8h[8:1]/3,3,
{24}7/4h[4:1],,,,,,,,,,,,31,8,7,6,5,4,3,2,1,8,7,6,
{8}5-2[8:1],,1-5[8:1]/5,8,7-4[8:1]/1,8,2-6[8:1]/7,1,
{8}2/8>7[8:3],,,,8,1,2,3,
{8}4-7[8:1],5,8-4[8:1]/4,1,2-5[8:1]/8,1,7-3[8:1]/2,8,
{8}7/1<2[8:3],,,,1,8,7,6,
{8}5-7[8:1],8-4[8:1],5,8,1-5[8:1],4-2[8:1],1,4,
{24}1,8,7,6,5,4,37,2,1,8,7,6,5^2[8:1]/1,,,,,,75,,,6,,,
{8}5-7[8:1],,5/1-5[8:1],2,1/8-4[8:1],7,8/2>1[8:3],,
{8}27,,,,6,5,2,3,
{8}4-7[8:1],5,8-4[8:1]/4,1,2-5[8:1]/8,1,7-3[8:1]/2,8,
{8}7/1<2[8:3],,,,1,8,7,6,
{8}5-2[8:1],4,1-5[8:1]/5,8,7-4[8:1]/1,8,2-6[8:1]/7,1,
{8}2/8>7[8:3],,,,8,1,2,3,
{8}4-2[8:1],1-5[8:1],4,1,8-4[8:1],5-7[8:1],8,5,
{24}8,1,2,3,4,5,62,7,8,1,2,3,4^7[8:1]/8,,,,,,24,,,3,,,
{8}4-2[8:1],,4/8-4[8:1],7,8/1-5[8:1],2,1/7qq8>7b[8:7],,
{1}7b/3bh[4:3],
{4}8h[1:1],,,2,
{1}2h[1:1],
{4}4h[1:1],,,6,
{2}6h[2:1],8h[2:1],
{16}2,,2,,4,,4,,3,,3,,5,4,5,,
{16}6,,6,,4,,4,,5,,5,,3,4,3,,
{16}2,,2,,5,,5,,3,,3,,6,4,4,,
{16}7,,7,,4,,4,,6,,6,,3,5,5,,
{16}2,,24,,35,,35,,46,,46,,57,46,35,24,
{16}1,,17,,28,,28,,13,,13,,13,82,71,68,
{16}5,,25,,36,,36,,47,,47,,58,47,36,25,
{16}1,,16,,27,,27,,38,,38,,14,83,72,61,
{24}5,,,36,,,47,,,58,,,1,2,3,4,52,63,74,5,6,7,8,1,
{24}2,,,38,,,27,,,16,,,8,7,6,5,47,36,25,4,3,2,1,8,
{8}7,6,35,35,26,26,17,17,
{32}8h[32:1],,7,,8,,7,,8h[32:1],,7,,8,,7,,D1,A1,D2,A2,D3,A3,D4,A4,D5,A5,D6,A6,D7,A7,D8,A8,
{1}D1/1x>8[4:29],
{1},
{1},
{1},
{1},
{1},
{1},
{8},,,,1,1,8,8,
{4}2pp5[8:7]/7,7,6,6,
{8}6<3[8:5],,,,,,5,6,
{4}7qq4[8:7],7,3,3,
{8}3>6[8:5],,,,,,4,3,
{4}2>7[8:5],2,1,1,
{8}28,,2-4[8:1]/8-6[8:1],,,,5,4,
{8}35,,26,,1,7,28,,
{16}1h[32:1],8,1,8,1h[32:1],8,1,8,2h[32:1],7,2h[32:1],7,3h[32:1],6,4h[32:1],5,
{32}3h[1:1],,,,,,,,6,7,,,,,,,8,7,,,,,,,6,7,,,,,,,
{16}8,7,6,5,2,3,4,5,7,6,5,4,1,2,3,4,
{32}8h[1:1],,,,,,,,3,2,,,,,,,1,2,,,,,,,3,2,,,,,,,
{8}1,1,28,28,3^8[8:1]/7,,37,6,
{32}15,2,,,,,,,26,7,,,,,,,27,3,,,,,,,37,8,,,,,,,
{8}6,45,3,28,3/7^4[8:1],,37,2,
{4}1p4[4:1],4p7[4:1],7p2[4:1],2^7[4:1]*^5[4:1],
{8},,,,4h[8:1],6h[8:1],3h[8:1],5h[8:1],
{16}2,4,2,4,3,5,3,5,2,4,2,4,3,5,3,5,
{16}2>8[8:3],,,,,,,,,,,,1,2,3,4,
{16}7,5,7,5,6,4,6,4,7,5,7,5,6,4,6,4,
{16}7<1[8:3],,,,,,,,,,,,8,7,6,5,
{16}2,4,2,4,3,5,3,5,4,6,4,6,5,7,5,7,
{16}5,4,3,2,18,7,6,5,2V48[4:1]/4,,,,5,,6,,
{16}7,1,7,1,6,2,6,2,7,3,7,3,8,4,8,4,
{32}8b,7,6,5,4,3,2,1,8b,7,6,5,4,3,2,1,8b/3b,4,5,6,7,8,1,2,3b,4,5,6,7,8,1,2,
{1}3b/8bz4[4:7],
{1},
E
