&title=3分29秒
&artist=ヒトリエ
&first=0
&des=BlackH
&lv_5=13+
&inote_5=(203)
{1},
{16}8,,2,4,2,,6,4,6,,2v4<5[16:3],,8,,8,,
{8}7h[4:3],,3,,3,,3,7h[2:1],,2,,2,5h[2:1],,3,,
3h[2:1],,6,,6,4h[4:1],,7>2[4:1],,,,
,5>2[4:1],5,,,
7,7h[4:1],,5,,7,7h[4:1],,2,5h[4:1],1,1,
{16}1,8,7,6,5,4,3,2,
{8}8-3[4:1],,,6-1[4:1],,,4-7[4:1],,,2-5[4:1],,,
8-4b[8:1],,8b,,
2>5[8:1],1,2/8,7h[4:1],,
{16}5,7,5,7,4,6,3,,
{8}6-8-5[4:1],,5-1[8:1]/6,,3x,3x,2x,
1<6[8:1],2,1/3,4h[4:1],,
{16}6,4,6,4,5,3,4,,
{8}2-8-4[4:1],,4-7[8:1]/2,,5x,5x,,
7<4[8:1],8,7/1,2h[4:1],,
{16}4,2,4,2,5,3,6,,
{8}3-1-4[4:1],,4-8[8:1]/3,,6x,6x,7x,
8-3[4:1],,,5-1[4:1],,,3<6[4:1],,,8w4[4:1],
{4},,,
{8}2hx[1:1]/7x,,7,,7,,7,,7,2,7,5,7,3,7,3,
6hx[1:1],,3,,3,,3,,3,6,3,5,3,6,3h[8:3],,,
{16}
E5,B5,E6,B6,E7,B7,E8,B8,E1,,,,
B5,E6,B6,E7,B7,E8,B8,E1,B1,,,,
B6f,B3,C,,,,
{8}7hx[1:1]/2x,,2,,2,,2,,2,7,2,4,2,6,2,6,
3hx[1:1],,5,,5,,5,,5,,1,,
{12}7,5,6,2,4,3,
{8}6,,5<1[8:3],,3,,
4,4,5,,5p1[4:1],,6,,6,,
8<4[8:3],,3,,3,,,2,
2q6[4:1],,7,,7,,6,4h[8:3],7,,
7h[4:1],,6>3[4:1],,8,8,7,,7V53[4:1],,Chf[4:1],,,,
8-3[4:1],,,4-8[4:1],,,7<4[4:1],,,2-5[4:1],,,
8-4b[8:1],,8b,,
1-5[8:1],,7-4[8:1]/1,,7,
3xV15[4:1],,3/8-4[8:1],,8bx>4[16:3],,8b,,
1,1-5[8:1],,3,3<6[8:1],,8-5[8:1],,8>6[4:1],,8b,,,1,,
5,
{16}7,3,7,,1,5,
{8}1>4[8:1],,B7/B8,,1<6[8:1],1,B1/B2,,8>3[8:1],,B7/B8,,1<6[8:1],1,B1/B2,,
3,3,2/6h[8:1],2,1/5h[8:1],1,8/4h[8:1],8-4[8:1],,6-8-5-2[8:3]/8b,,6b,,1,1,1,
2>5[8:1],,7-3[8:1]/2,,7,8>4[16:3],,
5-1[8:1]/8,,5bx<1[16:3],,3b,,4,4-8[8:1],,6>3[8:1],,6,8-5[8:1],,
8>6[4:1],,8b,,,8,,
4,
{16}6,2,6,,7,3,
{8}7<4[8:1],,B7/B8,,1>4[8:1],1,B1/B2,,7<4[8:1],,B7/B8,,1>4[8:1],1,B1/B2,,
8<3[8:3],,,,1,1-5[8:1],,1/8,,7h[8:1],5,7h[8:1],
{12}8,1,2,35,6,7,
{8}8-6[16:3],,2,,2h[4:1],,4-6[16:3],,3,,3h[4:1],,8,,8h[4:1],,
2-4[16:3],,5,,7-5[16:3],,4,,
1,,1-5[4:1],,5,,7,7,
{4}8V64[2:1],,,,8V24b[2:1],,Chf[4:1],,
{8}
1-5[8:1],2,13,4h[4:1],,
{16}6,4,6,4,5,3,4,,
{8}1-7-4[4:1],,1/4-8[8:1],,5x,5x,6x,
8>3[8:1],7,86,5h[4:1],,
{16}3,5,3,5,4,6,5,,
{8}7-2-5[4:1],,5-1[8:1]/7,,3x,3x,,
1q5[8:1],8,17,6h[4:1],,
{16}4,6,4,6,3,5,2,,
{8}7-3-5[4:1],,7/5-1[8:1],,2x,2x,3x,
4-8[4:1],,,6-2[4:1],,,1-5[4:1],,,4h[8:3],,,
Ch[4:1],,
{8}8q4[8:1],7,68,5h[4:1],,
{16}3,5,3,5,2,4,1,,
{8}4-8-3[4:1],,3-7[8:1]/4,,2x,2x,1x,
2q6[8:1],1,28,7h[4:1],,
{16}5,7,5,7,4,6,3,,
{8}6-1-4[4:1],,4-8[8:1]/6,,2x,2x,,
1p5[8:1],2,13,4h[4:1],,
{16}6,4,6,4,7,5,8,,
{8}3-8-5[4:1],,5-1[8:1]/3,,7x,7x,8x,
3-8[4:1],,,5-2[4:1],,,1-5[4:1],,,7<4[4:1],,,,,,
{16}1,1,7,,1,,7,,1h[8:1],,
{24}3,4,5,6h[4:1],,,,,,8,1,2,3h[4:1],,,,,,
6,7,8,1h[24:5],,,,,,48,37,26,1v7[8:1]/5v3[8:1],
