&title=Nerverakes
&artist=Taishi
&first=0
&des=Doraemon Television
&lv_6=14
&inote_6=(140)
{1},
{4},,3h[2:1],,
{4}4h[2:1],,5h[2:1],,
{4}6h[1:1],,,,
{1}1b-5[2:1],
{16}5/4,,3,4,3,
,5/4,,6,5,6,5,6>3[8:1],,7,,
{16}6/8,,8,,7,8,7,1,8-4[8:1],,2,,1/8,,,,
{16}5/4,,6,5,6,,4/5,,3,4,3,4,3<6[8:1],,2,,
{16}1/3,,1,,2,1,2,8,1>4[8:1],,7,,1/8,,,,
{16}8/7,,1,8,1,,7/8,,6,5,7,5,6-3[8:1],,7,,
{16}6/8,,8,,7,8,7,1,8-4[8:1],,2,,1/8,,,,
{16}2/1,,8,1,8,,1/2,,3,4,2,4,3-6[8:1],,2,,
{16}1/3,,1,,2,1,3,5,4,4,6,6,5,5,7,7,
{16}8b-5[12:1],,,6,8,,8-5[12:1],,,,8,,1,,,,
{16}8-5[12:1],,,7,8,,8-5[12:1],,,,8,,2,2,4,,
{16}1-4[12:1],,,8,1,,1-4[12:1],,,,1,,2,,,,
{16}3/6,,5,5,4<7[8:1],,2,2,4,3,3,3,3,8,8,8,
{16}8/5-8[12:1],,,7,5,,5-8[12:1],,,,5,,4,,,,
{16}5-8[12:1],,,6,5,,5-8[12:1],,,,5,,3,3,1,,
{16}4-1[12:1],,,5,4,,4-1[12:1],,,,4,,2,,,,
{16}4/6,,3,3,5>2[8:1],,7,7,5,6,6,6,6,1,1,1,
{8}1/5b-2[4:1],,6,,7-4[4:1],,8,,
{8}1-6[4:1],,2,,3-8[4:1],,4,,
{8}5>1[4:1],,1<5[4:1],,4,,3h[1:0],,
{8}2/4<7[4:1],,1h[1:0],,8>3[4:1],,5h[1:0],,
{16}7<4[16:3],,7,,8,,1,,2<7[16:3],,2,,3,,4,,
{16}5>2[16:3],,5,,6,,7,,8-4[8:1],,8,,1,,2,,
{16}2,4,3,5,4,6,5,7,8,6,1,7,2,8,3,1,
{16}4,4,3,3,2,2,1,1,{32}8b,7,6,5,4,3,2,1,8,7,6,5,4,3,2,1,
{16}8b-4[32:19]/7b,,,,,,,,,,,,5,,,,
{16}3,4,2,4,3,5,4,6,5,5,7,7,4,4,6,6,
{24}4,5,4,5,,3,6,5,6,5,6,,{16}4,4,6,6,3>8[8:1],3,5,5,
{16}3-7[8:1],,6,6,3-5[12:1],,5-2[8:1],5-1[8:1]*-1[8:1],3,,,,,,3,,
{16}4-8[8:1],,8<5[9:1]*>3[9:1],,4,,,,,,6,6,5>2[8:1],,,,
{16}5/7,,6,6,1,1,7,7,3,1,2,8,1,7,8,6,
{24}1,8,1,8,,2,7,8,7,8,7,,{16}1-4[9:1],,6-3[9:1],,1-5[8:1],,6,,
{16}1,,,,7,7,5,5,6,6,4,4,7-3[8:1],7,4,4,
{16}7b,,2,,5<8[8:1],,2,,5b-2[8:1]/1-4[8:1],,,,5b/1-6[8:1],,,,
{16}1b/3,,,,4,4,5,3,3>8[8:1],,7,,{32}7/3,6,5,4,7,6,5,4,
{16}3/7-5[8:1],,3,3,7-4[9:1],,4-8[9:1],4-6[9:1]*-6[9:1],7,,,,,,3,,
{16}2-5[8:1],,4-8[8:1],,2,,4>8[8:1],,,,5,,6,6,8,,
{16}6,8,7,1,8,2,1,3,4,2,5,5,3,6,6,4,
{48}7h[8:1],,,,,8b,1,2,3,4,5,,{16},,6,8,7,1,8,2,2,8,1,7,
{16}8,8,6,6,{48}1b,2,3,4,,,7,,,7,,,{16}4,4,{48}1b,8,7,6,,,{16}3,3,{48}5b,6,7,8,,,
{24}2,4,2,4,3,5,3,5,4,6,4,6,3,4,3,5,4,5,2,4,2,6,4,6,
{32}2b,3,4,5,6,7,8,1,2,3,4,5,6,7,8,1,2/5b,4,3,2,1,8,7,6,5/1b-5[8:1],2,3,4,5/1b,8,7,6,
{1}5/1b>8[1:1]*<2[1:1],
{1},
E
