&title=思想犯
&artist=ヨルシカ
&first=0
&des=Orisa
&lv_5=14
&inote_5=(200){4},,,
{2}8,,7,,6,,5,,1,,2,,3,,4b,,
{16}5,,3,,1,,,,4,,7,,8,,8,,4h[8:3],,,,,,
{16}2,,1,,8,,7,,6,,5-8[8:1],,,,5,,,,5-2[8:1]/4,,,,6h[2:1]/5,,,,
{16}4,,3,,3,,,,2,,2,,,,,,
{16}4,,6,,8,,,,5,,2,,1,,1,,5h[8:3],,,,,,
{16}7,,8,,1,,2,,3,,
{8}4>1[8:1],5,6,7<4[8:1],8,1,2<7[8:1],3,4,5,5,,6,6,,,
{16}8,,2,,4,,,,1,,6,,5,,5,,1h[8:3],,,,,,
{16}3,,4,,5,,6,,7,,8-5[8:1],,,,8,,,,8-3[8:1]/1,,,,7h[2:1]/8,,,,
{16}1,,2,,2,,,,3,,3,,,,,,
{16}4,,6,6,8,,,,5,,2,2,1,,1,,5h[8:3],,,,,,
{16}7,,8,,1,,2,,3,,
{8}4>1[8:1],5,6,7<4[8:1],8,1,2<7[8:1],3,4,5,5-8[8:1],,5/6,,,,
{8}5,5,3,1,1,,3,,4h[8:3],,6,6,,2,2,7,1,5,3,7,4,8,2,6,4-7[8:1],,2h[4:1]/4,,1,1,2,2,5-1[8:1],,5/7-3[8:1],7,2-6[8:1],2,8h[2:1],,,,,3,B6,B5,,,1-5[8:1],8,1,8v3[8:1],,8v5[8:1],1,8,B2,E3,,E7,,,,,
{8}1,1,7,5,5,,7,,8h[8:3],,2,2,,6,6,3,5,1,7,3,8,4,6,8-4[8:1],,1h[8:5]/8,,,,,5,5,1-5[8:1],,1/3-7[8:1],3,6-2[8:1],6,4h[4:1],,,,,,7,,B2,B3,8-4[8:1],1,8,1-5[8:1],8,1,8-3[8:1],1,8,1-6[8:1],8,1,,,
{8}7,7,3h[8:1]/4b,,,4h[8:1]/3>8[8:1],,3,6,6,5-1[8:1]/7h[8:1],,5,3h[8:3],,,
{8}8,8,4h[8:1]/3b,,,3h[8:1]/4<7[8:1],,4,1,1,2-6[8:1]/8h[8:1],,2,4h[8:3],,,
{8}7-2[8:1],7,5b,5-8[8:1],,5/2,,1-6[8:1],6-2[8:1],1,5-8[4:1],,5,3q6[16:11],,3,7,7,8,,8h[2:3],,,,1,,,,1,,,,1-5[8:1],2,1b/7-2[8:1],,7/4-8[8:1],3,4b/6q3[16:3],,6b,1bh[8:3],,,
{16}4x,5x,6x,7x,8x/1,2,3,4,2x-6[8:1],3x,4x,5x,{48}6x/2b,,Cf,{16},,,4,,,,1>5[2:1],,,,B7/B8/E8,,,,5<1[2:1],,,,B3/E3/B2,,,,1pp4[8:3],,,,B7/B8/E8,,,,7v2[4:3],,,,7h[1:1],,,,,,,,,,,,,,,,
{16}8h[4:1],,,,1h[4:1],,,,5,4,3,2,1-5[8:1]/5h[4:1],,,,,,,,8-4[8:1]/4h[4:1],,,,,,,,
{4}2h[4:1],1h[4:1],8h[4:1],7h[4:1],
{16}B1,B2,B3,B4,B8,B7,B6,B5,E2,E3,E4,E5,E1,E8,E7,E6,
{16}2<3[4:1],,,,2,,,,2x,1x,8x,7x,6x,5x,4x,3x,2xh[4:1]/1bx-5[8:1],,,,,,,,8-4[8:1]/6h[4:1],,,,,,,,
{16}1-4[4:1],,,,4-7[4:1],,,,7-2[4:1],,,,2-5[4:1],,,,5-1[4:1],,,,8h[2:1],,,,,,,,2h[2:1],,,,,,,,1,8,7,6,5,4,3,2,1,8,7,6,5qq3[8:1]*pp7[8:1]/4,,,,,,,,4h[4:1],,,,1h[4:1],,,,D4,B3,B2,D2,5h[4:1],,,,D1,B8,B7,D7,8hx[1:1],,,,,,,,1h[8:1],,,,,,,,2h[1:1],,,,,,,,3,,,,4,,,,5-1[8:1],,,,5/6h[4:3],,,,,,,,7,,,,8,,,,1/8-4[8:1],,,,8/2,,,,8/1-5[8:1],,,,1/7,,,,,,,,,,,,,,,,,,,,,,,,,,,,,,,,,,,,,,,,,,,,,,,,,,,,,,,,,,,,,,,,,,,,
{8}6h[8:3],5,4,3h[8:7],,,,,4,5,6,2h[8:7],,,,,3,4,5,1h[8:5],,,,,C,,,,,,,,,{96},,,,,,
{8}5/6h[4:1],,5,,5h[4:1]/6,,6,,5/6h[4:1],,5,,5h[4:1]/6,,4,,
{8}4h[4:1]/3,,3,,3h[4:1]/4,,4,,4h[4:1]/3,,2,,3h[4:1]/4,,5,,
{8}7h[4:1]/3,,3,,2h[4:1]/6,,6,,7h[4:1]/3,,4,,2h[4:1]/6,,5,,
{8}8h[4:1]/4,,5,,2h[4:1]/6,,5,,8h[4:1]/4,,3,,2/6[4:1],,3,,8/4h[2:1],,7,,5h[2:1],,2,,3h[2:1],,7,,6h[2:1],,7,,1h[2:1],,2,,8h[2:1],,7,,3h[2:1],,2,,4h[4:15],,1,,8>7-1>2-4<5-7V13V57>6V82V46[2:5],,,,,,,,,,,,,,,,,,,,,,,,,,
{16}8b,1,2,3,4/5b,6,7,8,6b-2[8:1]b,7,8,1,{48}2x/6b,,Cf,{16},,,1,,,,5b<7-1[2:1],,,,B3/B4/E4,,,,1b>3-5[2:1],,,,B7/E7/B6,,,,5bpp8[8:3]b,,,,B3/B4/E4,,,,3bv6[8:1]b,,,,3b,,,,1bw5[8:1],,,,1b,,,,
{32}B4f/E4,B5,B6,B7,B8,B1,B2,B3,
{16}B4f/8xh[4:1],,,,1h[4:1],,,,5,4,3,2,1b-5[8:1]/5bh[4:1],,,,,,,,8b-4[8:1]/4hb[4:1],,,,,,,,
{4}2b-6[8:1],2b/1b-5[4:1],8b-4b[4:1]/1b,7bh[4:1]/8b,
{32}B4f/E4,B3/E3,B2/E2,B1,,,,,B5/E5,B6/E6,B7/E7,B8,,,,,
{32}1bx,2x,3x,4x,5x,6x,7x,8x,1b,2,3,4,5,6,7,8,
{16}5b>6[32:7]b*>7[16:3]*>8[32:5]b*>1[8:1]*>2[32:3]b,,,,5b,,,,5bx,4x,3x,2x,1xb,8x,7x,6x,5xbh[4:1]/4bx-8[8:1]b,,,,,,,,3b-7[8:1]b/1hb[4:1],,,,,,,,
{16}2b-5[4:1],,,,5b-8[4:1],,,,8b-3[4:1],,,,3b-6[4:1]b,,,,6b-2[4:1]b,,,,1hb[2:1],,,,,,,,3hb[2:1],,,,,,,,1b,8,7,6,5/1b,4,3,2,1/5b,8,7,6,4bpp6[8:1]b*qq2[8:1]b/5b,,,,,,,,5h[4:1],,,,8hb[4:1],,,,{32}D6f,B6/E6,B7/E7,D8/E8/B8,,,,,{16}4hb[4:1],,,,{32}D1f,B1/E1,B2/E2,D3/B3/E3,,,,,{16}1bhx[1:1],,,,,,,,8h[8:1],,,,,,,,7h[1:1],,,,,,,,6,,,,5,,,,4-8[8:1],,,,4/3h[4:3],,,,,,,,2,,,,1,,,,
{8}8w4[8:3],,,,,,,,
{16}8,,2,2,4,,,,1,,6,6,5,,5,,1h[8:3],,,,,,
{16}3,,{24}5,4,5,{16}4,,6,,7,,8-5[8:1],,,,8,,,,8-3[8:1]/1,,,,7h[4:1]/8,,,,
{16}1,,2,8,2,,,,3,,3,,,,,,
{16}4,,6,6,8,,,,5,,2,2,1,,1,,5h[8:3],,,,,,
{16}7,,8,,1,,2,,3,,
{8}4>3-1[8:1],5,6,7<6-4[8:1],8,1,2<1-7[8:1],3,4,5,5-8[8:1],,5/6,,,,
{16}1,,7,7,5,,,,8,,3,3,4,,4,,8h[8:3],,,,,,
{16}6,,{24}4,5,4,{16}5,,3,,2,,1-5[8:1],,,,1,,,,8-5[8:1]/1,,,,2h[4:1]/8,,,,
{16}8,,7,1,7,,,,6,,6,,,,,,
{16}5,,3,3,1,,,,4,,7,7,8,,8,,4h[8:3],,,,,,
{16}2,,1,,8,,7,,6,,
{8}5<6-8[8:1],4,3,2>3-5[8:1],1,8,7>8-2[8:1],6,5,4<5-7[8:1],3,2,1>2-4[8:1],8,7,6,
{1},,
E
&inote_6=
