&title=あにゅすめあ
&artist=桃寝ちのい × 南見こまり
&first=0.055
&des=57qx55uQ
&lv_5=13+
&des_5=57qx55uQ
&inote_5=
(56.66667){4},,1>6[4:1],7,
8<3[4:1],2,1h[4:1],{12}8-4[12:1],7,6,
{4}5-1[12:1],3h[6:1],8<3[4:1],3,
1>6[4:1],6,{12}7h[4:1],8,1,2-6[12:1],,4,
5<8[12:1]*>2[12:1],{24},,,,,,,,1,2,{12}3-5[12:1],5-7[12:1],{3}7,
{12}8p3[12:1],1,2,3,{24},,4,5,{12}6-8[12:1],7,7,2-4[12:1],{24}1h[8:1],,,8,
{12}2v5[12:1],1,{6}1,{24}6h[8:1],,,4,{12}3p7[12:1],5,5,6q2[12:1],,4,
{6}3pp5[12:1],{12}8,7,{24},,4,3,{6}2<7[8:1],{12}3,6q3[8:1],,5,
{4}4h[4:1],{24}5,5,6/4,4/6,3/7,2/8,{12}1V35[12:1],2,2,1/6v8[12:1],7,7,
6/5V31[12:1],4,4,5,6,7,1h[4:1]/8-5[12:1],7-3[12:1],6,,,4,
5-1[12:1],4/6,7/3,5,2h[12:1],{24}8,7,{12}6V48[6:1],3,3,6/1V37[6:1],2,2,
1/8w4[12:1],7,6,8,{24},,6/2,1/7,{6}8p3[8:1],{12}7,2p5[8:1],,1,
{4}8h[6:1],{12}4,3,2,E7,E8,E1,2,2,2,
3,3,3,E1,C,E5,B3,A2,A1,7,8,7,
6,5,5,B1,C,B5,E7,E8,E1,2,3,4,
5,6,7,E2,E3,E4,E6,E7,E8,1w5[12:1],2/8,7/3,
{4}1x,{12}6/4,7/3,2/8,{8}7b/1b>4[12:1],{24}8,8,8,{12}1/8qq5[6:1],,2,
8>4[12:1],1,1,8,{24},,5,6,{12}7V15[6:1],6,5-7[12:1],1/7,2,3,
{8}4>1[12:1],{24}5,3,6,{12}4-7[12:1],8,8,{8}4qq1[6:1],{24}3,3,3,{12}4/8<4[12:1],,7,
8,2,3,4h[12:1]/5h[12:1],{24},{8}B7f/E8/A7,{6}B2f/E2/A2,{24}6,5,{12}4h[6:1],,5,
{24}2-6[24:1],3,4,7-3[24:1],6,5,{8}2x,7x,{12}1pp4[6:1]*qq6[6:1],3/7,5,1b,,,5pp4[6:1],
3,3,2<8[24:1],{24}3,3,{12}3,{24}7,6,5,4,3,2,8,7,6,3,2,1,
{12}7pp6[6:1],5,5,4>2[24:1],{24}5,5,{12}5,{24}8,7,6,1,2,3,5,6,7,4,3,2,
{12}1pp8[6:1],7,7,6>4[24:1],{24}7,7,{12}7,{24}3,2,1,8,7,6,4,3,2,7,6,5,
{12}3pp1[6:1],1,1,6<8[24:1],{24}7,7,{12}7,{4}Ch[12:5],{12}B1/A1,B8/A8,B7/A7,
6x-8[12:1],8-5[12:1],{6}5-1[12:1],{12},,2-4[12:1],4-1[12:1],{3}1-5[12:1],
{12}8<5[12:1],5-1[12:1],1>4[12:1],4-8[12:1],,,1<6[12:1],2,3,4h[6:1],,5,
3<6[12:1],2,2,3/6,,,7>2[12:1],6,6,7/2,,,5-1[12:1]/4-8[12:1],
6/3,7/2,5p4[6:1]/4>5[6:1],,,{4}4/5,{12}E5,C,E1,
{8}2>5[12:1],{24}8,1,8,{8}2,{24}6,6,5,{8}7<4[12:1],{24}1,8,1,{8}7,{24}3,3,4,
{8}2p4[12:1],{24}5,3,5,{8}2,{24}6,6,4,{8}7q5[12:1],{24}4,6,4,{8}7,{24}3,3,5,
{8}2pp1[8:1],{24}8,1,8,{8}2/7<5[24:1],{24}8,8,8,{8}7/3qq4[8:1],{24}5,4,5,{8}3/6<8[24:1],{24}5,5,5,
{8}6/4V28[12:1]*>8[12:1],{24}7,6,5,{8}4V68V24[4:1]*<4[4:1],{24}5,5,5,{4}4b,{12}B5,C,B1,
{24}2q6[12:1],1,1,1,{12}1,{24}2/7V53[12:1],8,8,8,{12}8,{24}7/1q5[12:1],2,2,2,{12}2,{24}1/6q8[6:1],7,7,7,{12}7,
{24}6/1>6[8:1],2,2,2,{12}2,{24}1/8qq2[6:1],7,7,7,{12}7,{24}8/4>8[6:1],3,3,3,{12}3,{24}4/7,7,6,6,5,5,
6,6,4,4,{12}5h[12:1],{24}E2/B2,4,3,3,{12}6h[12:1],{24}4,4,7,7,{12}5h[12:1],{24}E8/B8,4,6,6,{12}3h[12:1],
{24}4,2,4,2,{12}5h[12:1],{24}E2/B1,6,3,7,{12}4h[12:1],{24}8,8,1,1,{12}7h[12:1],{24}E4/B4,6,2,2,8,8,
1,1,7,6,5,4,{4}3<8[4:1],6,5>8[4:1],
1,3V58[8:1],6V41[8:1],2pp6[6:1],
8h[4:1],{12}5<8[12:1],4,3,{6}2,{12}1,1>4[12:1],8,7,
6,7,8,5v2[12:1],{24},{8}4/7h[8:1],{24},,,,8,7,{12}6h[24:1]/4h[24:1],5h[24:1]/3h[24:1],4h[24:1]/2h[24:1],
1h[24:1]/7h[24:1],8h[24:1]/6h[24:1],7h[24:1]/5h[24:1],6b/4b>1[12:1],{24},5,5,5,{6}4/6q8[6:1],{12}5/4,3<6[12:1],2,1,
{6}3/7h[12:1],{24}8,8,{12}7>1[12:1],1-5[12:1],5<7[12:1],3/7-3[12:1],2,2,1V35[6:1],{24},8,8,,{12}1/7,
B7,C,1/8<4[12:1],{24},2,2,2,{6}8/1pp4[6:1],{12}7,1/6,5,5,
{8}6h[12:1]/3h[12:1],B2f/A2/E2,{12}B7f/E8/A7,{24},,3,4,{6}5h[6:1],{12}4,{24}3v1[24:1],4,5,6v8[24:1],5,4,
{8}3x,6x,{12}7<1[6:1]/2>8[6:1],8/1,8/1,{4}2b/7b,{12}6qq7[6:1],5,5,
2,1,1,3-5[24:1],2,2,3-8[12:1],6,6,3/7<4[12:1],6,6,
2pp4[12:1],1,1,6<1[12:1],7,7,{4}5h[6:1],{12}4pp1[6:1],3,3,
{4}4/6h[6:1],{12}8pp5[6:1],7,7,{4}8/2h[6:1],{12}4,4,5/3,
4/6,7/3,2/8,1<6[12:1],1>4[12:1],1-5[12:1],,,,{4}4h[2:1],
E5,5h[2:1],C,3h[2:1],
{12}E2,E1,E8,6h[2:1],,,{4}E1,1h[2:1],
C,8h[2:1],E5,2h[3:1],
{12},7h[12:5],{4},{16},{64},{192},{64}3,4,5,6-3[64:45],
E
