&title=Seven Days of Genesis
&artist=Ice
&first=0.121
&des=yt_xiaoyu
&lv_5=14+
&des_5=yt_xiaoyu
&inote_5=
(140){4},,,,{2}6h[1:1]/4h[4:1],
{32}4,3,,,,,,,,,,,,,,,{4}E3,
B4,C,E6,
{2}3h[1:1]/5h[4:1],{32}5,6,,,,,,,,,,,,,,,{4}E6,
B7,B1,E3,
{1}6h[4:3]/5>7[1:1],
{4}7-2[4:1],2-6[4:1],6-3[4:1],3-5[4:1],
{2}7-5[4:1],3-5[4:1],
{1}1q4[2:1]*p6[2:1],
3h[4:3]/4<2[1:1],
{4}2>4[4:1],4<6[4:1],6<8[4:1],8>2[4:1],
{2}4-2[4:1],4-6[4:1],
{1}8qq5[2:1]*pp3[2:1],
{2}8<1[1:1],{4}B3,B2,
{2}1pp4[1:1],{4}B6,B5,
{2}4>5[1:1],{4}B7,B6,
{2}5pp8[1:1],{4}B2,B1,
{2}8q2[2:1],2q4[2:1],
4q6[2:1],6q8[2:1],
7h[4:3],3h[4:1],
{1}Cfh[1:1]/B7h[1:1]/B6h[1:1]/B2h[1:1]/B3h[1:1],
{6},5/4h[6:1],6,3h[3:1]/7h[3:1],,B8/B7/B2/B3,
8/2h[6:1],1,2/3,3h[3:1]/4h[3:1],,B5/E6/B2/E2,
{3}7h[6:1]/1h[6:1],{12}1,7,2,6,3,5s1[3:1],4z8[4:1],5,
,,,,,,{2}Ch[3:1],
4V68[2:1],8V24[2:1],
4<8[2:1],8>4[2:1],
4pp4[2:1],4qq4[2:1],
6h[6:5],3h[3:1],
{24}3b,5,4,5,4,5,4,5,4,5,4,5,3b,5,4,5,4,5,4,5,4,5,4,5,
{20}3b,5,4,5,4,5,4,5,4,5,3b,5,4,5,4,5,4,5,4,5,
{16}3b,5,4,5,4,5,4,5,3b,5,4,5,4,5,4,5,
{12}3b,5,4,5,4,5,{8}3b,5,4,5,
{1}4b>5[1:1],
5<4[1:1],
{48}B6,E7,B7,E8,{4},,,{16},,{24},{48}B4,
E4,B3,E3,{4},{16},,{24},{2}Cf,
{8}8V61[4:1],1/4,8/3,2,2V84[4:1],3/7,2/6,7,
7-1-5[4:1],8/4,7/2,3,3V52[4:1],2/6,3/7,6,
6<1V75[4:1],7/4,6/3,2,2v5>3[4:1],3/1,2/8,7,
7-5v3[4:1],6/2,7/3,2,2-5qq3[4:1],1/4,2/5,1,
1>3[16:1],{16}8,7,{8}1x,{16}6,4,{8}5<7[16:1],{16}4,3,{8}5x,{16}2,4,
{8}3<5[16:1],{16}2,1,{8}3x,{16}6,8,{8}7>1[16:1],{16}6,5,{8}7-4[16:1],3-8[16:1],
7-2[16:1],3-6[16:1],7-5[16:1],3-1[16:1],7-1[16:1],3-5[16:1],7,3,
7/3,6/2,5/1,4/8,{4}3h[4:1]/7h[4:1],{48}E8f/E4f,B8/B4,B1/B5,E2/E6,,,,,,,,,{8}3/2,
3/4,5/3,{16}4,4,{8}5b,7/6,7/5,{16}6,6,
{8}5b,1/2,1/3,{16}2,2,{8}3b,1/8,7/1,{16}8,8,
{8}7x-4[16:1],8/6,7,{16}3,3,{8}3x-1[16:1],4/2,3,{16}8,8,
{8}8x-6[16:1],7/1,8,{16}5,5,{8}5x-2[16:1],6/4,{4}5,
{16}6v8[16:1],5,6,5,{8}6,{16}3,4,3v5[16:1],2,3,4,{8}3,{16}7,6,
7v2[16:1],6,7,6,{8}7,{16}1,8,1v6[16:1],7,1,8,{4}1,
{32}8bx,7,6,5,,,,,1bx,2,3,4,,,,,5bx/8bx,7/4,6/3,2/5,,,,,4bx/1bx,2/5,3/6,4/7,5,6,7,8,
{16}A1,E1,E8,A7,B2,C,B6,A6,A2,E3,E4,A4,B1,C,B5,A5,
{4}4/6-8[8:1],B4/B3/E4,7/1-3[8:1],B7/B6/E7,
2/4-7[8:1],B1/E2/B2,5<8[4:1],8>3[4:1],
3-6[8:1],B8/E1/B1,2/8-5[8:1],B3/E3/B2,
1-5[8:1],C/1-7[8:1]*-6[8:1],1-3[8:1]*-4[8:1],1,
3/5<8[8:1],B1/B2/E2,7/1>4[8:1],B6/E6/B5,
4/7-1-5[4:1],B2/E3/B3,4>8[8:1],B7/B6/E7,
1/5v8[8:1]*p8[8:1],B2/E3/B3,B4h[4:3]/E5h[4:3]/E4h[4:3]/8<6[8:1],A7,
8>2[8:1],A1,8h[4:1],4h[4:1],
{16}8x,7,6,5,{8}4/8b,{16}1,2,1x/3x,2,3,4,5/1b,2,3,4,
5x,6,7,8,1b,2,3,4,1b/5,2,3,4,1b/5,6/2,7/3,8/4,
1x,2,3,4,5x,6,7,8,4x,5,6,7,3x,4,5,6,
{32}8x,7x,6x,5x,8x,7x,6x,5x,8x,1x,2x,3x,8x,1x,2x,3x,{4}8xh[4:1],A4/D4/A3/B3/B4/E5/D5/A5/E4/B5,
8-5-2[4:1],8h[4:1],1-3-6[4:1],1h[4:1],
7-5[8:1]*-4[8:1],7-1[8:1]*-2[8:1],7w3[8:1],7,
{32}8>3[32:3],7,6,5,B8,B7,B6,B5,{4}8x,{32}1<6[32:3],2,3,4,B1,B2,B3,B4,{4}1x,
{16}4,4,5,5,6,6,7,7,{32}1,8,1,8,1,8,1,8,2,7,2,7,2,7,2,7,
(280){2}B7/B6/B3/B2/E7/E3/Cf,{4}8h[8:1]/6h[8:1],7h[8:1]/5h[8:1],
6h[8:1]/4h[8:1],7h[8:1]/3h[8:1],6h[8:1]/1h[8:1],{8}8h/7h,8h/7h,
{4}8h/7h,8h[8:1]/2h[8:1],7h[8:1]/3h[8:1],1h[8:1]/4h[8:1],
7h[8:1]/3h[8:1],{16}1,1,1,1,{4}1,8h[8:1]/2h[8:1],
8-4[8:1],2-6[8:1],7-4[8:1],3-1[8:1],
6-2[8:1],4-8[8:1],5-1[8:1],2,
{16}8x,7,6,5,4,3,2,1,8x,7,6,5,4,3,2,1,
8x/3x,4,5,6,7,8,1,2,3x,4,5,6,{4}7,
{8}8/1,7/2,{4}3/6-2[8:1],C,{8}3,8,
4,7,5,6,4,7,3,8,
2x,1,3,4,1x,8,4,5,
8x,7,5,6,1x,8,4,5,
2b,4,3,4,1b,4,3,4,
8b,4,3,4,7b,4,3,4,
{16}6b,7,8,1,2,3,4,5,8b/6x,1,2,3,4,5,6,7,
3b/8x,4,5,6,7,8,1,2,{2}3x,
{8}5/7-4b[8:1],4-7-5[4:1],7/3,2,{4}1,{8}4/2-5b[8:1],5-2-4[4:1],
2/6,7,{4}8,{2}B7h[4:1]/E8h[4:1]/E7h[4:1],
{8}5/7-4b[8:1],4-8-5[4:1],7/3,2,{4}1,{8}4/2-5b[8:1],5v3[4:1],
2/6,7,{4}8,E4h[4:1]/B3h[4:1]/E3h[4:1],{8}6,7,
{4}8<7<6>5>4[4:1],{16}4,3,2,1,{4}8>1>2>3<4[4:1],{16}4,5,6,7,
{4}8<7<6>5>4[4:1],{16}4,3,2,1,8,7,6,5,4/8,3/7,2/6,1/5,
{1}4h[2:1]/8<8-4[0.2143##3.2143],
{32}E6,B5,B4,E4,{4},,,{16},,{32}E6,
B6,B7,E8,{1},{4},,,{16},,(140){4},
,,5/6<4[1:1],
6/7,,,4-7-2-5[4:3],
{2}7,5-8-3[2:1],
3-6-1[2:1],1-4-7[2:1],
,8h[2:1],
{4}1h[1:2],B8,B7,B6,
B5,B4,B3,B2,
8h[1:2],E1,E2,E3,
E4,E5,E6,E7,
{1}B7h[16:1]/E7h[16:1]/E3h[16:1]/B3h[16:1]/B6h[16:1]/B2h[16:1],
E
