&title=弹舌
&artist=MC赵小六
&first=0.03
&des_1=赵小六开发了32分三角
&des_2=赵小六开发了32分三角
&des_3=赵小六开发了32分三角
&des_4=赵小六开发了32分三角
&des_5=赵小六开发了32分三角
&lv_5=14
&des_6=赵小六开发了32分三角
&des_7=赵小六开发了32分三角
&des=赵小六开发了32分三角
&inote_5=(145)
{4},,,,,,,,,,1b,
(186.84)
{8}
,,,,,,
{32}
,,,,,,,7,,,,,,,,,,,
{64}
4/5,3,4x,,
{8}
,,,,,,,,,,,,,,,,,,,,,
{32}
3x,4,3,,,,,,
5x,4,5,,,,,,
4x,5,4,,,,,,
6x,5,6,,,,,,
{32}
3x,4,3,,,,,,
5x,4,5,,,,,,
4x,5,4,,,,,,
6x,5,6,,,,,,
{32}
2x,4,2,,,,,,
5x,3,5,,,,,,
4x,6,4,,,,,,
7x,5,7,,,,,,
{32}
2x,4,2,,,,,,
5x,3,5,,,,,,
6x/2x,3,4,5,6,7,8,1,2b,,,,,,,,
{32}
6x,5,6,,,,,,
4x,5,4,,,,,,
5x,4,5,,,,,,
3x,4,3,,,,,,
{32}
6x,5,6,,,,,,
4x,5,4,,,,,,
5x,4,5,,,,,,
3x,4,3,,,,,,
{32}
7x,5,7,,,,,,
4x,6,4,,,,,,
5x,3,5,,,,,,
2x,4,2,,,,,,
{32}
7x,5,7,,,,,,
4x,6,4,,,,,,
3x/7x,6,5,4,3,2,1,8,7b,,,,,,,,
{32}
3x,4,3,,,,,,
5x,4,5,,,,,,
3x,4,3,,,,,,
5x,4,5,,,,,,
{32}
2x,4,2,,,,,,
6x,4,6,,,,,,
2x,4,2,,,,,,
6x,4,6,,,,,,
{32}
4x,5,4,,,,,,
6x,5,6,,,,,,
4x,5,4,,,,,,
6x,5,6,,,,,,
{32}
3x,5,3,,,,,,
7x,5,7,,,,,,
7x/3x,4,5,6,7,8,1,2,3b,,,,,,,,
{1}
,
{32}
6x,5,6,,,,,,
4x,5,4,,,,,,
6x,5,6,,,,,,
4x,5,4,,,,,,
{32}
7x,5,7,,,,,,
3x,5,3,,,,,,
7x,5,7,,,,,,
3x,5,3,,,,,,
{32}
5x,4,5,,,,,,
3x,4,3,,,,,,
6x,4,6,,,,,,
2x,4,2,,,,,,
{32}
1x,2,1,,,,,,
3x,4,3,,,,,,
1x,2,1,,,,,,
3x,4,3,,,,,,
{32}
1x,3,1,,,,,,
2x,4,2,,,,,,
1x,3,1,,,,,,
2x,4,2,,,,,,
{32}
6x,5,6,,,,,,
8x,7,8,,,,,,
6x,5,6,,,,,,
8x,7,8,,,,,,
{32}
7x,5,7,,,,,,
8x,6,8,,,,,,
7x,5,7,,,,,,
8x,6,8,,,,,,
{32}
6x,5,6,,,,,,
2x,1,2,,,,,,
5x,4,5,,,,,,
1x,8,1,,,,,,
{32}
4x,3,4,,,,,,
8x,7,8,,,,,,
3x,2,3,,,,,,
7x,6,7b,,,,,,
{1}
,
{32}
,,,,,,,,,,,,,,,,,,,,,,,,,2,,,,,,,
{32}
4x,5,4,,6,,,,
6x,5,6,,4,,,,
4x,5,4,,6,,,,
6x,5,6,,4,,,,
{32}
4x,5,4,,6,,,,
6x,5,6,,4,,,,
4x,5,4,,6,,,,
7x/1x,,,,2/5,,,,
{32}
3x,4,3,,5,,,,
5x,4,5,,3,,,,
3x,4,3,,5,,,,
5x,4,5,,3,,,,
{32}
3x,4,3,,5,,,,
5x,4,5,,3,,,,
6x/2x,3,4,5,6,7,8,1,2b,,,,,,,,
{32}
5x,4,5,,3,,,,
3x,4,3,,5,,,,
5x,4,5,,3,,,,
3x,4,3,,5,,,,
{32}
5x,4,5,,3,,,,
3x,4,3,,5,,,,
5x,4,5,,3,,,,
2x/8x,,,,7/4,,,,
{32}
6x,5,6,,4,,,,
4x,5,4,,6,,,,
6x,5,6,,4,,,,
4x,5,4,,6,,,,
{32}
6x,5,6,,4,,,,
4x,5,4,,6,,,,
3x/7x,6,5,4,3,2,1,8,7b,,,,,,,,
{32}
3x,4,3,,,,,,
5x,4,5,,,,,,
4x,5,4,,,,,,
6x,5,6,,,,,,
{32}
2x,4,2,,,,,,
5x,3,5,,,,,,
4x,6,4,,,,,,
7x,5,7s3[1.404945##0.842967],,,,,,
{32}
,,,,,,,,,,,,,,,,,,,,,,,,,,,,,8b,,,,,,,,8b,,,,,,8b,,,,,,,8b,,,,,,,,,,,,,,
E
