&title=ワンルームシュガーライフ
&artist=ナナヲアカリ
&first=0.311
&des=Kurage
&lv_5=13+
&inote_5=(180)
{1},
{4}5qq5[4:2]/7,7,8,8,6pp5[8:5],5,4,4,
{4}3>8[4:1],8<5[4:1],5>2[4:1],2,8h[4:1],6h[4:1],4h[4:1],2,
{4}3/4V63[4:2],3,1,1,2V84[4:2],6,4-2[4:1],6,
{4}8<4[4:1],4>8[4:1],8,{8}4,3h[8:1],
7,64,64,64,{48}6b-4[8:1],4b,,,,,,,,,,,{4},
{16}2,3,4,5,8,7,6,5,{8}34,1,26,26,
{8}
3b-5[8:1],,7-1[8:1],,2-6[8:1],,7-1[8:1],,
3-5[8:1],,7,,8h[8:1],4h[8:1],7h[8:1],5h[8:1],
6-4[8:1],,2-8[8:1],,7-3[8:1],,2-8[8:1],,
6-4[8:1],,2,,1h[8:1],5h[8:1],{16}3,4,3,4,
{8}
2b-4[8:1],,6-8[8:1],,3-5[8:1],,7-1[8:1],,
4-6[8:1],,8,,7h[8:1],3h[8:1],6h[8:1],5h[8:1],
{8}7V53[4:1],4,7b/3b,,1-4[8:1]*-6[8:1],8,1b,,
{16}73,,6,5,6,,3,4,3,,54,,{8}6/2-6[8:1],,
{8}
5bpp4[8:5],,4,,3h[8:1],,3h[8:1],,
2b>4[8:1],,6,{16},6,{4}5h[8:1],5h[8:1],
8bV63[4:2]/4b,4,2h[8:1],2h[8:1],
1-5[8:1]/5,1,{16}6,4,7,3,1b,,,,
{16}7b/5b-3[8:1],,,6,5,,{8}8<5[8:1],,2h[4:1],,4,
3h[8:1],5,5qq5[8:3]/6,,8,,,6,
{16}3/7<4[8:1],,,8,7,,{8}1-5[8:1],,6pp7[4:1],6,4>6[8:3],
,4,6,,5,43,43,43,
{16}
2h[16:3],,,4,2,,35,,4h[16:3],,,6,4,,57,,
8h[16:3],,,2,1,2,8,,3h[8:1]/7h[8:1],,,37,,,45,,
2-4[8:1],,,5,2,,7,,8-6[8:1],,,5,8,,3,,
{4}5/1-5[8:1],1-3[8:1]*-7[8:1],1w5[8:1],1b,
{16}
7h[16:3],,,5,7,,64,,5h[16:3],,,3,5,,42,,
1h[16:3],,,7,8,7,1,,6-4[8:1]/2,,6/2-6[8:1],,,,,,
8h[16:3],,,1,8,,2,4,3h[16:3],,,7,3,,54,,
{4}6/3>6[8:3],,3b,45,
{8}5bqq4[8:3]/6,,6,6,6,6,6h[8:1],{16}2,2,
{8}4bv1[8:1],,3,2V46[4:1],,7,8-5[8:1],,
{4}8bz4[4:2]*s4[4:2]/1b,,,,
{16}5b,1b,5b,1b,5b,1b,5b,1bw5[16:3],{4},,
{8}
2bV48[4:1],5b-7[8:1],2b,5b,,{16}2,1,2,,{8}37,
8bV61[4:1],5b-2[8:1],8b,5b,,7-1[32:3]/3-5[32:3],48,7-3[8:1],
,1,1,2,13,8-6[8:1]/4-8[8:1],,8V25[4:1]/4,
,5-8[8:1],6,7-3[8:1],,1,1,1h[8:1],
4bV61[4:1],2-5[8:1],4,2,,78,1,26,
3V51[4:1]/7V15[4:1],48,,,,73,8-4[8:1]/2-4[8:1],,
2-6[8:1]/8,,5b-8[8:1],5,1,3,4b>1[8:1]/6b<1[8:1],7,
{4}6-4[8:1],1bw5[8:1],1,{32}3,4,5,6,7,8,1,2,
{8}
3-8[8:1]/4-8[8:1],,3b/4b,,{16}5,4,6,,{8}1/2-4[8:1],8h[8:1],
2-6[8:1],6h[8:1],2,5,{16}3,4,2,,{8}8<5[8:1]/7,1h[8:1],
8-2[8:1],3h[8:1],8,4,{16}7,8,6,,{8}15,4qq5[16:7]/6pp4[16:7],
,4b/6b,,,,,{32}6,5,4,3,2,1,8,7,
{8}
6-1[8:1]/5-1[8:1],,6b/5b,,{16}2,4,3,,{8}8/7<4[8:1],1h[8:1],
7-3[8:1],3h[8:1],7,4,{16}6,5,7,,{8}1>4[8:1]/2,8h[8:1],
1-7[8:1],6h[8:1],1,5,34,56,7p4[4:5]/8,12,
{4}3b,,,,,,{16}2,2,6,,{8}2h[16:1]/6h[16:1],2h[16:1]/6h[16:1],
{8}
6b-4[8:1],6,2-8[8:1],2,7-3[8:1],7,2-8[8:1],2,
6-4[8:1],6,2,2,1h[8:1],5h[8:1],2h[8:1],4h[8:1],
3-5[8:1],3,7-1[8:1],7,2-6[8:1],2,7-1[8:1],7,
3-5[8:1],3,7,7,8h[8:1],4h[8:1],{16}6,5,6,5,
{8}
7b-5[8:1],7,4-2[8:1],4,8-3[8:1],8,5-1[8:1],5,
7-4[8:1],7,3,3,2h[8:1],6h[8:1],3h[8:1],4h[8:1],
2-4[8:1],2,5-7[8:1],5,1-6[8:1],1,4-8[8:1],4,
3>5[8:3],3,5b,,4w8[8:1],,4b,,
{16}
2,4,3,4,2h[8:1],,6,,45,,3,4,2,,8,,
7,5,6,5,7h[8:1],,3,,54,,6,5,7,,1,,
2,4,3,4,1,4,3,4,8h[16:3],,,4-8[8:1],,,3b/5b,,
