&title=XL TECHNO -More Dance Remix-
&artist=from PACA PACA PASSION Spicial
&first=-0.57
&lv_7=XL?!
&des_7=XL_mzk
&inote_7=
(150){4},{1},,,,{4},,,{16}6x,
5,6,5,6,5,6,5,6,5,6,5,6,5,6,5,
5x,4,5,4,5,4,5,4,5,4,5,4,5,4,5,4,
4x,3,4,3,4,3,4,3,4,3,4,3,4,3,4,3,
3x,2,3,2,3,2,3,2,3,2,3,2,3,2,3,2,
6x,5,6,5,6,5,6,5,6,5,6,5,6,5,6,5,
5x,4,5,4,5,4,5,4,5,4,5,4,5,4,5,4,
4x,3,4,3,4,3,4,3,4,3,4,3,4,3,4,3,
3x,2,3,2,3,2,3,2,3,2,3,2,3,2,3,2,
7xh,B6,7,5,B6,5,6,B5,6,4,B5,4,6,5,6,5,
6,B5,6,4,B5,4,5,B4,5,3,B4,3,5,4,5,4,
5,B4,5,3,B4,3,4,B3,4,2,B3,2,4,3,4,3,
4,B3,4,2,B3,2,4,B3,4,2,2,2,5,3,6,4,
7xh,B6,7,5,B6,5,6,B5,6,4,B5,4,6,5,6,5,
6,B5,6,4,B5,4,5,B4,5,3,B4,3,5,4,5,4,
5,B4,5,3,B4,3,4,B3,4,2,B3,2,4,3,4,3,
4,B3,4,2,B3,2,4,B3,4,2,2,2,5,3,6,4,
7xh,6,7,5,6,5,7,5,7,4,6,4,5,5,5,5,
6,5,6,4,5,4,6,4,6,3,5,3,4,4,4,4,
5,4,5,3,4,3,5,3,5,2,4,2,3,3,3,3,
4,3,4,2,3,2,4,E3,4,2,2,2,4,4,6,6,
7xh,6,7,5,6,5,7,5,7,4,6,4,5,5,5,5,
6,5,6,4,5,4,6,4,6,3,5,3,4,4,4,4,
5,4,5,3,4,3,5,3,5,2,4,2,3,3,3,3,
4,3,4,2,3,2,4,E3,4,2,2,2,3,3,5,5,
6xh,5,6,5,6,5,6,5,6,5,6,5,6,5,6xh,5,
5xh,4,5,4,5,4,5,4,5,4,5,4,5,4,5xh,4,
4xh,3,4,3,4,3,4,3,4,3,4,3,4,3,4xh,3,
{4}5b-1[8:1],5b-3[8:1]*-7[8:1],5bw1[8:1],5b/Cf,
{16}2xh,4,2,4,3,5,3,5,4,6,4,6,5,7,5,7,
6,7,6,7,5,7,6,7,3,6,5,6,2,4,3,3,
2,3,3,4,3,3,E3,4,4,5,4,4,E4,5,5,6,
4,7,B5,B6,4,6,B4,B5,3,5,B3,B4,2,3,4,5,
2xh,B5,B5,B5,3,4,3,4,4,5,4,4,3,5,4,4,
3,5,4,4,B3,6,5,6,4,B5,B5,B5,3,5,4,6,
3,4,4,5,5,5,4,4,4,E6,E6,E6,4,5,4,5,
4,E6,E6,E6,3,4,3,3,2,3,4,5,6,5,4,3,
2xh,4,2,4,3,5,3,5,4,6,4,6,5,7,5,7,
5,5,4,5,5,6,5,5,3,6,4,6,5,6,6,6,
2,4,2,4,3,5,3,5,4,6,4,6,5,7,5,7,
6,7,6,6,5,6,5,5,4,5,4,4,3,4,3,3,
2xh,4,2,4,3,3,2,5,4,4,3,6,5,5,4,7,
5,6,6,6,4,B5,B5,B5,4,6,B5,7,4,7,6,7,
3,4,4,5,4,4,B3,5,5,6,5,5,4,5,6,7,
C,C,C,C,C,C,C,C,{4}E3h[8:3],E7h[8:1],
{16}5xh,E6,E6,E6,E6,E6,E6,E6,E6,E6,E6,E6,E6,E6,E6,E6,
4xh,E5,E5,E5,E5,E5,3xh,E5,E5,E5,2xh,5,3xh,5,2xh,5,
3,4,3,3,2,4,3,5,4,6,5,7,6,7,7,7,
5,6,6,7,5,6,6,7,5xh,6,6,6,4xh,E5,E5,E5,
5xh,E6,E6,E6,E6,E6,E6,E6,E6,E6,E6,E6,E6,E6,E6,E6,
4xh,E5,E5,E5,E5,E5,3xh,E5,E5,E5,2xh,5,3xh,5,2xh,5,
3xh,4,4,5,3,5,5,6,3,5,5,6,6,6,5,5,
4,5,5,6,4,5,5,6,4xh,5,5,5,3xh,E5,E5,E5,
3,B4,B4,B4,B4,B4,3,3,3,B4,B4,B4,B4,5,5,6,
6xh,6,B5,B5,B5,B5,3xh,E4,E4,E4,E4,6,5xh,6,4xh,6,
5xh,6,5,5,4,4,3,3,3,B4,B4,B4,B4,5,5,6,
6,6,5,5,4,E6,E6,E6,4xh,5,5,5,3xh,E5,E5,E5,
3xh,4,4,4,4,4,3,3,3,B4,B4,B4,B4,5,5,6,
6xh,6,B5,B5,B5,B5,2xh,3,3,3,3,6,5xh,6,4xh,6,
5xh,6,5,5,4,4,3,3,3,B4,B4,B4,B4,5,5,6,
6xh,6,5,5,4,4,3,3,2xh,3,4,5,6xh,5,4,3,
2xh,5,5,6,5,5,4,5,5,6,5,5,4,5,4,5,
4,C,C,5,C,C,4,C,C,5,C,C,3,4,3,4,
2,3,3,4,3,3,2,3,3,4,3,3,2,3,2,3,
2,C,C,6,C,C,2,C,C,6,6,6,5,5,4,4,
2xh,5,5,6,5,5,4,5,5,6,5,5,4,5,4,5,
4,C,C,5,C,C,4,C,C,5,C,C,3,4,3,4,
2,3,3,4,3,3,2,3,3,4,3,3,2,3,2,3,
2,C,C,6,C,C,2,C,C,6,6,6,5,5,4,4,
2xh,6,E3,6,B3,6,C,6,B6,6,E7,6,7xh,6,7xh,6,
2xh,5,E3,5,B3,5,C,5,B6,5,E7,5,7xh,5,7xh,5,
2xh,4,E3,4,B3,4,C,4,B6,4,E7,4,7xh,4,7xh,4,
2xh,3,E3,3,B3,3,C,3,B6,3,E7,3,7xh,3,7xh,3,
2xh,6,E3,6,B3,6,C,6,B6,6,E7,6,7xh,6,7xh,6,
2xh,5,E3,5,B3,5,C,5,B6,5,E7,5,7xh,5,7xh,5,
2xh,4,E3,4,B3,4,C,4,B6,4,E7,4,7xh,4,7xh,4,
2xh,3,E3,3,B3,3,C,3,B6,3,E7,3,7xh,3,7xh,3,
3x<6[16:11]/7x>2[16:11],{4},,,{16},,{96}E3/E7/Cf,B3,B7,B4,B8,E5,
{1}E1,
E
