&title=PRAGMATISM -RESURRECTION-
&artist=Laur
&first=0
&des=Dororo
&wholebpm=174
&lv_5=14
&inote_5=(174)
{16}
,,,,,,,,,,,,,,,,
{32}
3h[128:1],4h[128:1],,,,,,,,,,,,,,,
,,,,,,,,,,,,,,,,
6h[128:1],5h[128:1],,,,,,,,,,,,,,,
,,,,,,,,,,,,,,,,
1h[128:1],8h[128:1],,,,,,,,,,,,,,,
,,,,,,,,,,,,,,,,
2-6[2:1],7-3[32:15],,,,,,,,,,,,,,,
,,,,,,,,,,,,,,,,
{16}
2h[4:3]/4h[8:3],,,,,,,,4,,5,,6,,7,,
7h[4:3]/5h[8:3],,,,,,,,5,,4,,3,,2,,
2h[4:3]/7h[8:3],,,,,,,,7,,6,,5,,4,,
3>5[2:1]/6<4[2:1],,,,,,,,,,,,,,,,
1bs5[2:1],,,,,,,,8,,8,,8h[4:1],,,,
3bs7[2:1],,,,,,5,,5,,,,6h[4:1],,,,
8bz4[2:1],,,,,,7,,,,5,,5h[4:1],,,,
3b^8[8:1],,,,,,7b^4[8:1],,,,1,,1b,,,,
8bz4[2:1],,,,,,,,1,,1,,1h[4:1],,,,
6bz2[2:1],,,,,,4,,4,,,,3h[4:1],,,,
1bs5[2:1],,,,,,2,,,,4,,4h[4:1],,,,
7z3[2:1]*s3[2:1],,,,,,,,,,,,,,,2b,
,,,6,5,,47,,,3,4,3,4,,25,,
2-5[8:1],,1,,2,,7,,7-3[8:1],,4,,7,,1,,
1^4[8:1],,7,,1,,6,,6h[8:3],,5,,4,,3,,
7-4[8:1],,8,,7,,2,,2-6[8:1],,5,,2,,8,,
8^5[8:1],,2,,8,,3,,3h[8:3],,6,,7,,8,,
12,,12,,38,,38,,47,,47,,56,,56,,
3,4,3,4,2,5,2,5,1,6,1,6,8,7,8,7,
1bq4[2:1]*p6[2:1],,,,,,,,,,,,,,,,
7h[8:1],,8,7h[8:1],,2,7h[8:1],,4,7h[8:1],,6,7b,,,,
1-4[8:1],,,,7,,7h[4:1],,,,5,,5-1[8:1]/6,,,,
7-4[8:1],,,,3,,3h[4:1],,,,5,,4/5^8[8:1],,,,
2pp4[8:1],,,,8,,8h[4:1],,,,5,,5-1[8:1]/6,,,,
8^3[8:1],,7,,6,,5,,4^7[8:1],,3,,2,,1,,
8-5[8:1],,,,2,,2h[4:1],,,,4,,4-8[8:1]/3,,,,
2-5[8:1],,,,6,,6h[4:1],,,,4,,5/4^1[8:1],,,,
7qq5[8:1],,,,1,,1h[4:1],,,,4,,4-8[8:1]/3,,,,
1^6[8:1],,2,,3,,4^1[8:1],,,,
{24}
5,6,7,8b,,,,,,
{16}
1,,6,5,7-3[8:1],,7h[4:1],,,,,,28,,1,,
1,,5,4,6-2[8:1],,6h[4:1],,,,,,17,,8,,
8,,6,5,7^4[8:1],,7h[4:1],,,,,,38,,2,,
1,,6,5,6,,8,,2,4,2,4,2,,1,,
8,,3,4,2-6[8:1],,2h[4:1],,,,,,71,,8,,
8,,4,5,3-7[8:1],,3h[4:1],,,,,,82,,1,,
1,,3,4,2^5[8:1],,2h[4:1],,,,,,61,,7,,
8bp4[8:1],,,,2,,2bq6[8:1],,,,1,1,1b,,,,
{32}
5<4[1:2],,,,,,,,,,,,,,,,
,,,,,,,,,,,,,,,,
,,,,,,,,,,,,,,,,
,,,,,,,6h[32:1],,,,,,,,,
{16}
7,,,,,,8,,,,,,2,,3,,
4,,,,,,1,,,,,,3,6,4,5,
4>5[1:2],,,,,,,,,,,,,,,,
3,,,,,,2,,,,,,1,,,,
2h[1:1],,,,,,,,,,,,,,,,
7,,7,5,,5,4,,2,,2,4,,4,3,4,
3-8[4:1],,,,1,,,,4-7[4:1],,,,6,,,,
3-8[4:1],,,,2,,,,4-7[4:1],,,,5,,5,,
6-1[4:1],,,,8,,,,5-2[4:1],,,,3,,,,
6-1[4:1],,,,7,,,,5-2[4:1],,,,4,,4,,
1,,1,,8,,8,,1,,1,,8,,8,,
65,,45,,34,,45,,56,,45,,34,,45,,
2,7,1,8,3,6,2,7,
{24}
1,2,3,7,6,5,2,3,4,8,7,6,
{16}
1h[4:1],,,,8,8,8,8,8-4[8:1],,,,8>7[4:5],,,,
,,,,,,,,,,,,,,,,
,,,,,,,,,,,,5,5,46,,
2-4[8:1],,2^7[8:1],,,,,,5-1[8:1],,5^7[8:1],,,,,,
2^5[8:1],,,,7^2[8:1],,,,
{24}
3,4,5,6,,,3,4,5,6,,,
{16}
8-3[8:1],,2-6[8:1],,,,,,4b^7[8:1],,,,
{24}
4b,3,2,1,,,
{16}
8-4[8:1],,4-8[8:1],,,,2,2,2q6[8:1]*^5[8:1],,,,2b,,,,
7-5[8:1],,7^2[8:1],,,,,,4-8[8:1],,4^2[8:1],,,,,,
7^4[8:1],,,,2^7[8:1],,,,
{24}
6,5,4,3,,,6,5,4,3,,,
{16}
1-6[8:1],,7-3[8:1],,,,,,5b^2[8:1],,,,
{24}
5b,6,7,8,,,
{16}
1h[16:1]/2h[16:1],,,,7h[16:1]/8h[16:1],,,,4-7[8:1]/5-2[8:1],,,,45,,,,
{48}
1b/8b,27,36,
{16}
45,,2,1,,2,,6-1[8:1],5,,5,6,,2,,
3/4^7[8:1],,,2,4,,2,,1^4[8:1],8,,8,1,,6,,
5b/6b-1[8:1],,,4,6,,4,,3-6[8:1],1,,1,3,,8,,
8p4[8:1],,,3,8,,3,,2q6[8:1],1,,1,2,,7,,
{48}
8b/1b,72,63,
{16}
45,,7,8,,7,,3-8[8:1],4,,4,3,,7,,
6/5^2[8:1],,,7,5,,7,,8^5[8:1],1,,1,8,,3,,
4b/3b-8[8:1],,,5,3,,5,,6-3[8:1],8,,8,6,,1,,
1bV73[4:1],,,,,,,,,,6,6,5,,7,,
8h[4:7],,,,,,,,,,,,,,,,
6<3[2:1],,,,,,,,,,,,,,,,
1h[2:3],,,,,,,,,,,,,,,,
3p6[4:1],,,,,,,,,,,,,,2,3,
4h[1:1],,,,,,,,,,1,,8,,7,,
6h[4:1],,,,3h[4:1],,,,8h[4:1],,,,5h[4:1],,,,
2h[2:1],,,,,,,,3,,,,4,,,,
5-1[2:1]/7,,,,,,,,,,,,,,,,
7,8,7,8,5,4,5,4,1,2,1,2,
{32}
8,7,6,5,4,3,2,1,
{16}
8v3[8:1],,,,83,,2-6[8:1],,,,12,,8,,7,5,
7q3[8:1],,7h[4:1],,,,,,5,4,5,6,5,,2,1,
2,3,2,,8q4[8:1],,8h[4:1],,,,,,3/5h[4:1],2,1,8,
7,,6/4h[4:1],7,8,1,2,,45,3,2,1,5,6,7,8,
2v5[8:1],,,,25,,6-1[8:1],,,,61,,2,,3,8,
3q7[8:1],,3h[4:1],,,,,,2,1,2,1,2,,38,,
4b,6,5,6,5,6,3b,6,5,6,5,6,2b,6,5,6,
5,6,1b,6,5,6,5,6,
{24}
8b,1,2,3,4,5,1b,2,3,4,5,6,
{16}
1v6[8:1],,,,16,,7-3[8:1],,,,87,,1,,2,4,
2p6[8:1],,2h[4:1],,,,,,4,5,4,3,4,,7,8,
7,6,7,,1p5[8:1],,1h[4:1],,,,,,6/4h[4:1],7,8,1,
2,,3/5h[4:1],2,1,8,7,,54,6,7,8,4,3,2,1,
7v4[8:1],,,,74,,3-8[8:1],,,,38,,7,,6,1,
6p2[8:1],,6h[4:1],,,,,,7,8,7,8,7,,61,,
5b,3,4,3,4,3,6b,3,4,3,4,3,7b,3,4,3,
4,3,8b,3,4,3,4,3,
{24}
1b,8,7,5b,4,3,8b,7,6,4b,3,2,
{16}
1w5[2:1],,,,,,,,,,,,,,,,
2h[8:1],,1,2h[8:1],,7,2h[8:1],,5,2h[8:1],,3,2b,,,,
5^8[8:1]/7qq5[8:1],,,,,,,,1,2,3,4,5,6,7,8,
{24}
1,2,3,4,5,6,7,8,1,2,3,4,
{32}
5,6,7,8,1,2,3,4,5,6,7,8,1,2,3,4,
{16}
5b,,,,8,7,6,5,8,7,6,5,8,7,6,5,
8,7,6,5,8,7,6,5,8,7,6,5,8,7,6,5,
4^1[8:1]/2pp4[8:1],,,,,,,,8,7,6,5,4,3,2,1,
{24}
8,7,6,5,4,3,2,1,8,7,6,5,
{32}
4,3,2,1,8,7,6,5,4,3,2,1,8,7,6,5,
{16}
4b,,,,1,2,3,4,1,2,3,4,1,2,3,4,
1,2,3,4,1,2,3,4,7h[128:1],7h[128:1],7h[128:1],8h[8:1],,7h[16:3],,,
8,,,,,,,,5bz1[4:9]/3bs7[4:9],,,,,,,,
,,,,,,,,,,,,,,,,
,,,,,,,,,,,,,,,,
,,,,,,,,,,,,,,,,
E
