&title=ペンタトニック
&artist=syudou,バルーン
&first=0
&des=NaTsuYu
&lv_5=13.8
&lv_7=14?
&inote_5=(161){4},,,,{2}4,
3,
{1}2/1,
{2}5,6,
7/8,Ch[8:1],
A4,B3,
{1}A8/D2,
{2}D8/A1,B6,
A5,4bxh[2:1],
{4}1bxV75[2:1],3,2,1,
5bx/8bxV24[2:1],6,7,8,
4bx/1bx-6-3[2:1],3,2,1,
5bx/8bx-3-6[2:1],6,{64}7,{32},,,,,,,{64}E1,B1,B2,E3,B3,B4,B5,B6,E7,B7,B8,{32},,,{8}3,
2-5[8:1],1,8/2,,7-4[8:1],8,7/1,
,3-8[8:1],4-7[8:1],3,{4}4-1[8:1],4/5-8[8:1],
{2}5,1h[16:7]/8h[16:7],
{16}E1,B8,B1,B7,B2,E7,E3,B6,B3,B5,B4,C,{4}2h[4:1],
{8}7h[2:1],4,3,2,{4}1h[2:1],{8}6,7,
{4}8x-4[8:1],8x-5[8:1]*-3[8:1],{8}8x,{4},{8}4h[8:5],
1,8,7,6,{4}5h[2:1],{8}3,2,
{4}1x-5[8:1],1x-6[8:1]*-4[8:1],1x,3V17[8:1]/5v7[8:1],
5/3,{8}6,7/5V31[8:1],,5/7v5[8:1],,7/1,
2,3,4,5,,6-8[8:1],5-1[8:1],6,
{4}5-2[8:1],{8}5,4-7[8:1],,7/4,6,5s1[8:3],
,5/4,3,2,{16}E3,B3,{8}B4,{16}E7,B6,{8}B5,
{12}3h[12:1],4h[12:1],2h[12:1],4h[12:1],3h[12:1],4h[12:1],{4}2x,{16}1/8,8/1,{8}8/1,
{12}6h[12:1],5h[12:1],7h[12:1],5h[12:1],6h[12:1],5h[12:1],7x,,8/1,8/1,8/1,8/1,
{12}2h[12:1],4h[12:1],3h[12:1],4h[12:1],2h[12:1],4h[12:1],{4}3x,{12}1/8,8/1,,
{12}7h[12:1],5h[12:1],6h[12:1],5h[12:1],7h[12:1],5h[12:1],{8},7/5,{4}4/2,
{8}5/6h[2:1],5,4,4,3h[2:1],5,5,4,
{4}4,5/2,6/1,{8}1,1,
2,3,2,3,,4-1[6.3354##0.1242],4,4h[4:3],
7,6,7,6,,5-8[4.8447##0.1242],5/3,2/5h[1:1],
1,2,3,4,,4-1[3.354##0.1242]*-1[3.354##0.1242],4,4h[1:1],
,5,6,7,,7,6,5-8[1.4907##0.1242]*-8[1.4907##0.1242],
,6/7,,3/2,,5-8b[12:1]/4-1b[12:1],,4bx/5bx,
{4}E1/B7/B8f,E7/B5/B6f,E3/B3f/B4,B2/E1/B1f,
{1}C,
{8}1/2p4[8:3],8,7,6,{4}5-2[8:1]*-8[8:1],5b,
{8}8/7q5[8:3],1,2,3,{4}4-7[8:1]*-1[8:1],4b,
{8},6<7-1[4:1],5,4,3<4-6[4:1],2,1,8>1-3<4[2:1],
{4}7,{8}D7,E6,{2}D5,
{8}3-7[8:1],2,3/4,5,6-2[8:1],7,6/5,4-2[8:1],
5-7[8:1],4-8[8:1],5-1[8:1],4,{4}5,{8}2-4-7[4:1],8,
{4}2/7-1-4[4:1],4-6-1[4:1],1-3-6[4:1],6-8-3[4:1],
8,{8}8-4[8:1],7,{4}6/8-5[8:1]*-3[8:1],8,
{8}2-4[8:1],1,2/5-1[8:1],6,{4}8-6[8:1]*-2[8:1],8b,
{8}7<5[8:1],8,7/4-8[8:1],3,{4}1>3[8:1]*<7[8:1],1b,
{8},3>2-8[4:1],4,5,6>5-3[4:1],7,8,1<8-6>5[2:1],
{4}2,{8}D3,E4,{2}D5,
{8}6v1[8:1],7,6/5,4,3v8[8:1],2,3/4,5-7[8:1],
4-2[8:1],5v8[8:1],4v1[8:1],5,{4}4,{8}1<8-6[8:1],2,
{4}1/3,{8}8>1-3[8:1],7,{4}8/6,{8}1-5[8:1],2,
{4}3/1-4[8:1]*-6[8:1],1w5[8:1],{2}1,
{4}E7h[8:13],B4h[1:1],B7h[4:5],B5h[8:5],
{1}B6h[2:1],
{4}E3h[8:13],B5h[1:1],B2h[4:5],B4h[8:5],
{1}B3h[2:1],
{4}E1h[4:7],B1h[8:11],B8h[1:1],B2h[8:5],
{8}B7h[4:1],{4},,,{8}B7/B8/B1/B2
,,,,B6/B3/E7/E3,,,,B5/B4,
E
&inote_7=(161){4},,,,{2}4h[1:1],
3h[2:1],
{1}2,
{2}5h[1:1],6h[2:1],
7,E5h[8:1],
A4,A3,
{1}A2/A1,
{2}A8/A7,A6,
A5,4bxh[2:1],
{4}1bxV75[2:1]*p4[2:1],3,2,1,
5bx/8bxV24[2:1]*q5[2:1],6,7,8,
4bx/1bx-6-3[2:1]*<3[2:1],3,2,1,
5bx/8bx-3-6[2:1]*>6[2:1],6,{64}7,{32},,,,,,,{64}E1,B1,B2,E3,B3,B4,B5,B6,E7,B7,B8,{32},,,{8}3,
2-5[8:1],1,8/2,,7-4[8:1],8,7/1,
,3-8[8:1],4-7[8:1],3,{4}4-1[8:1],4/5-8[8:1],
{2}5,1h[16:7]/8h[16:7]/2h[16:7]/7h[16:7],
{16}E1,B8,B1,B7,B2,E7,E3,B6,B3,B5,B4,C,{4}1h[4:1],
{8}8h[2:3],7,7,7,{4}7h[1:1],{8}6,6,
{4}6x-2[8:1]*-1[8:1],6x-4[8:1]*-3[8:1],{8}6x,{4},{8}1h[8:13],
2,2,2,2,{4}2h[1:1],{8}3,3,
{4}3x-5[8:1]*-6[8:1],3x-8[8:1]*-7[8:1],3x,5-1[8:1]/7-1[8:1]/6-1[8:1],
6/7/5,{8}3,4-7[8:1]*-6[8:1]/2-8[8:1]*-7[8:1],,4/2q4[2:1],,1/2,
8,7,6,5,,6-8[8:1],5-1[8:1],6,
{4}5-2[8:1],{8}5,4-7[8:1],,7/4,6,5s1[8:3],
,5/4,3,2,{16}E3,B3,{8}B4,{16}E7,B6,{8}B5,
{12}1xh[12:5],2xh[3:1],3xh[4:1],4xh[6:1],{6}5xh[12:1],1/2/3/4/5,{12},{16}1/8,8/1,{8}8/1,
{12}8xh[12:5],7xh[3:1],6xh[4:1],5xh[6:1],{6}4xh[12:1],8/7/6/5/4,{12}8/1,8/1,8/1,8/1,
1xh[12:5],2xh[3:1],3xh[4:1],4xh[6:1],{6}5xh[12:1],5/4/3/2/1,{12},1/8,8/1,{6},{12}8xh[12:5],
7xh[3:1],6xh[4:1],5xh[6:1],4xh[12:1],{8},8/7/6/5,{4}4/3/2/1,
{8}5h[2:3]/4h[2:3],5,5,5,4/5,4,4,4,
{4}5/4,6h[4:1]/3h[4:1],,{8}1,1,
2,3,2,3,,4-1[0##7.4534],4,4h[4:3],
7,6,7,6,,5-8[0##5.6832],5/3,2/5h[1:1],
1,2,3,4,,4-1[0##4.0295]*-1[0##4.0062],4,4h[1:1],
,5,6,7,,7,6,5-8[0##1.8866]*-8[0##1.8866],
,5/7,,4/2,,5-8b[8:1]/4-1b[8:1],,4bx/5bx,
{4}E1/B7/B8f,E7/B5/B6f,E3/B3f/B4,B2/E1/B1f,
{1}C,
{8}8-2[1.118##0.1863]*-6[1.118##0.1863],8-3[0.9317##0.1863]*-5[0.9317##0.1863],8-2>3[0.7453##0.1863]*-6>5[0.7453##0.1863],8-3-5[0.559##0.1863]*-5-3[0.559##0.1863],{4}8v3[8:1]*v5[8:1],8b,
{8}1-7[1.118##0.1863]*-3[1.118##0.1863],1-6[0.9317##0.1863]*-4[0.9317##0.1863],1-7<6[0.7453##0.1863]*-3<4[0.7453##0.1863],1-6-4[0.559##0.1863]*-4-6[0.559##0.1863],{4}1v6[8:1]*v4[8:1],1b,
{8},6<7-1[4:1],5,4,3<4-6[4:1],2,1,8>1-3<4[2:1],
{4}7,{8}D7,E6,{2}D5,
{8}2-8[0.559##0.1863],3-8[8:1],4p8[0.1863##0.1863],2/3,5q1[0.559##0.1863],6-1[8:1],7-1[0.1863##0.1863],6/7,
4-2[0.7453##0.1863]/5-7[0.7453##0.1863],5-1[0.559##0.1863]/4-8[0.559##0.1863],5-8[8:1]/4-1[8:1],5<8[0.1863##0.1863]/4>1[0.1863##0.1863],{4}4w8[0##0.1863]/5w1[0##0.1863],{8}2-4-7[4:1],8,
{4}2/7-1-4[4:1],4?-6-1[4:1],1?-3-6[4:1],6?-8-3[4:1],
,{8}8-4[8:1],1,{4}2/8-5[8:1]*-3[8:1],8,
{8}3-5[1.2345##0.0699],5-3[1.0481##0.0699],2>3[0.8152##0.0466],6>5[0.6289##0.0466],{4}8-6>5-3[8:1]*-2>3-5[8:1],8b,
{8}6-4[1.2345##0.0699],4-6[1.0481##0.0699],7<6[0.8152##0.0466],3<4[0.6289##0.0466],{4}1-3<4-6[8:1]*-7<6-4[8:1],1b,
{8},3>2-8[4:1],4,5,6>5-3[4:1],7,8,1<8-6>5[2:1],
{4}2,{8}D3,E4,{2}D5,
{8}7-1[0.559##0.1863],6-1[8:1],5q1[0.1863##0.1863],6/5,4p8[0.559##0.1863],3-8[8:1],2-8[0.1863##0.1863],4/3,
5-7[0.7453##0.1863]/4-2[0.7453##0.1863],4-8[0.559##0.1863]/5-1[0.559##0.1863],4-1[8:1]/5-8[8:1],4>1[0.1863##0.1863]/5<8[0.1863##0.1863],{4}5w1[0##0.1863]/4w8[0##0.1863],{8}1<8-6[8:1],2,
{4}1/3,{8}8>1-3[8:1],7,{4}8/6,{8}1-5[8:1],2,
{4}3/1-4[8:1]*-6[8:1],1w5[8:1],{2}1,
{4}4h[1:1]/4?-6-1[1.4907##0.1863],6h[4:3]/6?-4-1[1.118##0.1863],3h[2:1]/4?>3-1[0.7453##0.1863],7h[4:1]/6?<7-1[8:1],
,{8}1,7,3,6,{4}4,
5h[1:1]/5?-3-8[1.4907##0.1863],3h[4:3]/3?-5-8[1.118##0.1863],6h[2:1]/5?<6-8[0.7453##0.1863],2h[4:1]/3?>2-8[8:1],
,{8}1,7,3,6,{4}4,
B5h[8:13]/B6h[8:13],B4h[2:3]/B3h[2:3],E7h[1:1]/B7h[1:1],B2h[8:5]/E3h[8:5],
{8}B1h[4:1]/E1h[4:1]/B8h[4:1],{4},,,{8}B6/B5/B4/B3/E7/E3,
,,,B7/B8/E1/B1/B2,,,,E1/B8/B7/E7/B6/B5/B4/B3/B2/B1/E3,
E
