&title=愛を探して
&artist=きくお/初音ミク
&first=0.12
&des=自問自答
&lv_5=14
&inote_5=(145)
{1},,
{1}4qq5[16:25],,3qq6[16:25],,4q5[16:25],,4<3[4:5],{2},4h[2:1],
{1}5pp4[16:25],,6pp3[16:25],,5p4[16:23],,5>6[16:25],Cfh[1:1],
{4}6h[8:1],6h[8:1],5h[8:1],5h[8:1],
3h[8:1]/5<7[8:1],3h[8:1],2h[8:1]/8>3[8:1],2xh[8:1],
4h[8:1]/1p8[8:5],4h[8:1],5h[8:1],5h[8:1],
6/8h[8:1],8h[8:1],1h[8:1]/B4,1,
5h[8:1]/B7,5h[8:1],4h[8:1],4h[8:1],
6h[8:1]/4>2[8:1],6h[8:1],7h[8:1]/1<6[8:1],7xh[8:1],
5h[8:1]/8q1b[8:5],5h[8:1],4h[8:1],4h[8:1],
3h[8:1],3h[8:1],2/4h[8:1],4/B2,
1h[8:1]/B5,1h[8:1],7h[8:1],7h[8:1],
2h[8:1],2h[8:1],6h[8:1],6h[8:1],
{4}5/3h[8:1],4/6h[8:1],5/2h[8:1],4/7h[8:1],
{8}16,2,73,2,16,7,83,7,
{8}6,6,3,3,
{16}5,2,6,3,7,4,6,3,
{16}5,2,6,3,7,4,8,3,6,2,5,1,6,2,7,3qq2b[4:1],
{1}8bqq7<2[4:3],
{8},4xpp5[4:1],4xqq3b[4:1],,,,8<5[8:1],,
{32}4x/D7f,3x,2x,1xh[32:13],,,,,{8},,{32}4,,,,,,,,
{32}5x/1x,6x/2x,7x/3x,8xh[32:21]/4xqq5[32:9],,,,,{2},
{4}6h[4:1],4h[4:1],
{2}Cfh[2:1],{8}5b>2[8:1],,6,8<5[8:1],
{8},1,3>8[8:1],,4bq5[4:1],,,,
{8}1x-3[12:1],8,5,4x-2[12:1],3,1,8x-6[12:1],7,
4,5x-7[12:1],4,3xV52-8b[16:5],2bxh[384:1],,6xh[8:1],,
5x-3[12:1],6,1,8x-2[12:1],1,5,4bx-6b[12:1],3,
7,1bx-7b[12:1],8,3x-5v6[4:1],2bxh[384:1],,1xh[8:1],,
{2}4x/8x<5b[8:1]*>3[8:1],{4}4bxh[32:7]/Cf,
{32}5x/1x,6x/2x,7x/3x,4xh[32:21]/8xqq1[32:9],,,,,{2},
{4}2h[4:1],6h[4:1],
{2}Cfh[2:1],{8}4b<7[8:1],,3,1>4[8:1],
{8},8,6<1[8:1],,5bv4-2b[4:1],,,,
{8}8x-6[12:1],7,1,3x-5[12:1],2,4,6x-1[8:1],7,
5,3x-8[8:1],2,7-1v2-4b[8:3],6bxh[384:1],,,,
{1}Cf,,
{8}6xpp3[8:7],,,,B4/A4,,,,,B1/A1,,2,2h[2:1],,,,
3xqq6[8:7],,,,B5/A5,,,,,B8/A8,,7,7h[2:1],,,,
6xpp4[8:7],,,,B5/A5,,,,,B1/A1,,2,2h[2:1],,,,
4xqq5[4:3],,,,A6/E6,,,,,B7/A7,,8,8h[4:1],,6x,,
7xqq1[8:7],,,,B2/A2,,,,,B5/A5,,3,3h[2:1],,,,
2xpp6[8:7],,,,B7/A7,,,,,B4/A4,,5,5h[2:1],,,,
{1}4xq5<1>3[8:13],,
{8}6,6,5,5,4,4,3,3,
{16}2,5,3,6,4,7,3,8,2,6,1,5,2,6,3,7,
{8}6h[4:1]/4h[4:1],,,4h[4:1]/6h[4:1],,,5h[4:1]/3h[4:1],,,5h[4:1]/3h[4:1],,,2,3,64,,
5h[4:1]/7h[4:1],,,4h[4:1]/6h[4:1],,,4h[4:1]/6h[4:1],,,53,,2,1,8,7,6,
5h[4:1]/3h[4:1],,,5h[4:1]/3h[4:1],,,2h[4:1]/4h[4:1],,,42,,1,8,,75,,
6h[4:1]/4h[4:1],,,3h[4:1]/5h[4:1],,,3h[4:1]/5h[4:1],,,42,,1,87,,65,,
{8}4/3<6[8:1],,1,8>3[8:1],,6,5<8[8:1],,
3,2>5[8:1],,8,7V58[4:1],,6,,
4>1[8:1],,8,7<4[8:1],,3,2<7[8:1],,
6,5>2[8:1],,1,8p3[8:1]*q5[8:1],,8,,
1>4[8:1],,4,5p1[8:1],,6,8<5[8:1],,
5,4q8[8:1],,3,1>4[8:1],,7-3[8:1],,
5<8[8:1],,4,4>1[8:1],,1,8q4[8:1],,
7,5<8[8:1],,3,1>4[8:1]*q5[8:1],,1,,
{8}6x,5x,{4}4xq5b[8:9],,,,,8h[2:1],6,
{8}7x<5p4>2[8:12],,,8,,,7,,,6,,,{4}5,4h[4:1],
{8}1x,2,3,5x,6,7,2x,3,
4,6x,7,8,2xh[4:1],4,6xh[4:1],5,
3x,2,1,7x,6,5,3x,2,
{16}1x,8,1,8,2,7,2,7,3,6,3,6,{4}Cfh[4:3],,,
{2}B8/B1/B5/B4/B7/B3,
{8}5h[384:1],5h[384:1],7h[384:1],1h[384:1],,2x>5[8:1],,,
{32}6x/D5f,7x,8x,1xh[8:5],{8},,,,,{32}4x/8x,3x/7x,2x/6x,5xh[32:17],{8},,,,
{8}1x,3x,5xqq4[16:3],7,,
8>3[8:1],,4,4h[8:3],,,5qq4[16:3],,
7,,8,8h[2:1],B5/E5,,{32}E7,E8,E1,E2,E3,,,,
{8}5bx-3[12:1],3,1,2bx-5[8:1],3,5,6bx-2[8:1],4,
8,1bx-6[8:1],4,6x-4v3b[16:5],7bxh[384:1]/A6f,,8xh[384:1],,
8bxV61[6:1],6,2,4bxV25[6:1],2,6,8bxV61[6:1],6,
2,4bxV25[6:1],2,6xv7-1b[16:5],8xh[8:3],,,,
{8}D3/E3/Cfh[2:1],,,,1b<6[8:1],,4,2>5[8:1],,
2,1v8b[6:1],,5v4b[6:1],,,,
Cfh[2:1],,,,4b>1[8:1],,5,7<4[8:1],,
7,8pp6b[8:3],,E6/B5,,,,
{8}7x-1[12:1],,8,2x-6[8:1],,3,7x-1[12:1],,
8,2xv3-5b[16:5],,3,8bxqq1[16:5],,,,
5x-2[8:1],,1,8x-6[12:1],,5,4x-7[8:1],,
7,8x-2v3b[16:5],,6,5bxpp4[16:5],,,,
{32}3x/E5f,2x,1x,8xh[8:5],{8},,,,,{32}5x/1x,6x/2x,7x/3x,4xh[32:17],{8},,,,
{8}8,6,4pp5[16:3],2,,
3>6[4:1],,4,4h[8:3],,,3>6[4:1],,
2,,1,1h[2:1],B3/B4,,{32}E3,E2,E1,E8,E7,,,,
{8}4bx-6[12:1],6,1,7bx-4[8:1],6,4,3bx-7[8:1],5,
2,8bx-3[8:1],5,3xV52-6b[8:3],2bxh[384:1]/A3f,,1xh[384:1],,
1bxV38[6:1],3,7,5bxV74[6:1],7,3,1bxV38[6:1],3,
7,5bxV74b[6:1],7,4bqq5<8[16:7],E5f/8b>4b[6:1],,,,
{8}Cfh[2:1],,,,8b>3[8:1],,5,7<4[8:1],,
7,8V27b[4:1],,4V63b[4:1],,,,
Cfh[2:1],,,,5b>2[8:1],,6,8<5[8:1],,
8,1V72b[16:3],,5V36b[16:3],,,,
{8}2x-8[12:1],3/1x,,7x-3[8:1],5,,2x-8[12:1],31,,
7x-3-6-4b[8:3],5,,1bxpp8[16:5],,,,
4x-8[8:1],6,,1x-3[12:1],28,,5x-7[12:1],64,,
8xz4-6b[8:3],27,,3bqq5[16:5],,,,
{32}6x/E5f,7x,8x,1xh[32:13],,,,,,,,,,,,,{4}5>2[32:3],
{32}1b,8x,7x,6xh[32:13],,,,,,,,,,,,,{4}8<5[8:1],
{4}2-6[8:1],8>3[8:1],
{32}7b,6x,5x,4xh[32:13],,,,,,,,,,,,,{4}8<5[8:1],
{32}4b,3x,2x,1xh[32:9],,,,,,,,,{8}4,
{32}2b,3x,4x,5x,,,,,{16}8b,2,6,8b,4,2,{8}8b,
{8}3,3,3,6,6,6,
{8}3,{16}3,4,{8}2,6,65,7,
{8}3,3,2,6,46,7,
{8}3,{16}3,4,{8}2,6,75,8,
{8}43,2,51,{16}6,6,{8}5,84,
{16}2,4,3,4,2,,{8}7,65,8,
{16}3x,4,3,6x,4,6,5x,7,3,5,3,7,
4x,6,2,4x,2,6,3x,5,2,6,5,7,
3x,8,2,7x,1,6,8x,5,2,8,3,6,
1x,4,3,8x,5,6,1x,3,2,8,6,7<5pp4[16:11],{1}2>4qq5[8:5],
{4}3h[8:1]/6h[8:1],7h[8:1]/2h[8:1],
{16}81,,6,3,7,2,8,,
{16}1b/5bxh[8:1],,3,5,2,,
8b/1bh[8:1],,7,1,6,,
1b/5bh[8:1],,3,5,2,,
8b/1bh[8:1],,7,1,6,,
1b/5bh[8:1],,3,4,2,,
8b/1bh[8:1],,7,8,6,,
1b/5bh[8:1],,2,4,3,,
8b/4bh[8:1],,7,5,6,,
1bx/5bxh[8:1],,2,4,2,,
1bx,2bh[16:3],4,,4,,
5bx/1bh[8:1],,4,2,4,,
3bh[8:1],,5h[32:1],4xh[32:1],6xh[8:1],,
3b,5,1,5,3,7,4b,6,2,6,4,1,3b,4,1,5,
3,8,4b,6,8,6,5,,
8b/4bh[8:1],,7,5,6,,
8b/6bh[8:1],,2,1,3,,
8b/4bh[8:1],,7,5,6,,
8b/6bh[8:1],,2,1,3,,
8b/4bh[8:1],,7,5,6,,
8b/6bh[8:1],,2,1,3,,
8b/4bh[8:1],,7,5,6,,
8b/6bh[8:1],,2,1,3,,
3b,5,1,7,5h[8:1],,
6b,4,8,2,4h[8:1],,
2b,4,1,7,5h[8:1],,
7b,5,8,2,4h[8:1],,
1b,4,8,6,5h[8:1],,
8b,6,1,3,4h[8:1],,
8b,6,4,1,3h[8:1],,
4b,1,7,5pp4>1[4:15],4qq5<8[16:59],,
{1},,,,
(148){2}5pp4[16:19],,3h[16:13],
{4},,,4pp5[12:13],{4},,,4h[8:7],{8},,,,,{16}B3/E4,,,,,,,
{1}5pp4[16:17],3pp2[16:17],
{4},{8}1pp1[8:7],
,,,,,,,,7xs3[3.75##0.3],
E
