&title=ゆのみっくにお茶して
&artist=Yunomi feat. nicamoq
&first=0
&des=Ho,Ho,Ho,Ho,Holinality
&des_5=Holinality
&lv_5=12+
&inote_5=(160)
{112}
,,,,,,,,,,,,,,,,,,
{1}
,,,,,
{64}
E6,,,,,,B5,,
,,,,B4,,,,
,,E4,,,,,,
,,,,,,,,
{16}
,,,,Ch[1:1],,,,
,,,,,,,,
,,,,,,,,
B6,,B3,,E6,,E4,,
B6,,B3,,E6,,E4,,
A6,,A3,,A5,,A4,,
A6,,3x,,4x,,5x,,
{16}
6xh[4:1],,,,3,,6,,
2,,7,,1,,8<5[4:1],,
,,8/1,,2,,3,,
4,,,,,,3,,
3h[4:1],,,,6,,3,,
7,,2,,8,,1pp4[2:1],,
,,1/8,,7,,7,,
6,,6,,5,,4,,
3h[4:1],,,,6,,3,,
7,,2,,8,,1>4[4:1],,
,,1/8,,7,,6,,
5,,,,,,6,,
6h[4:1],,,,3,,6,,
2,,7,,1,,8qq5[2:1],,
,,8/1,,2,,3,,
4,,,,,,,,
{16}
E6/E4/E5,,,,,,2>5[8:1],,
2,,,,7p3[8:1],,7,,
,,1x-5[8:1],,8x-4[8:1],,1,,
8,,,,,,,,
E6/E4/E5,,,,,,4,,
5/4,,,,4/5,,6,,
4/5,,3,,4/5,,6,,
4-1[8:1]/5-8[8:1],,,,4/5,,,,
E7/C/E3,,,,,,1-4[8:1],,
1,,,,8-5[8:1],,8,,
,,2x-4[8:1],,6x-8[8:1],,2,,
6,,,,3>8[8:1],,6,,
3,,,,6<1[8:1],,3,,
6,,,,4,,4/5,,
,,2/7,,1/8,,,,
3/6,,,,,,,,
E4/E6/E5,,,,,,7<4[8:1],,
7,,,,2q6[8:1],,2,,
,,8x-4[8:1],,1x-5[8:1],,8,,
1,,,,,,,,
E4/E6/E5,,,,,,5,,
4/5,,,,5/4,,3,,
5/4,,6,,5/4,,3,,
5-8[8:1]/4-1[8:1],,,,5/4,,,,
E3/C/E7,,,,,,8-5[8:1],,
8,,,,1-4[8:1],,1,,
,,7v4[8:1],,3-1[8:1],,7,,
3,,,,7<4[8:1],,1,,
7,,,,2>5[8:1],,8,,
2,,,,8,,8/1,,
,,7/2,,8<2[8:3]/1>7[8:3],,3/6,,
1/8,,,,,,,,
{16}
8<5[8:1],,,,8/A2/A3/D3,,,,
1>4[8:1],,,,1/A7/A6/D7,,,,
E6/E7/E8,,,,E1/C/E5,,,,
E2/E3f/E4,,,,,,,,
1>4[8:1],,,,1/A7/A6/D7,,,,
8<5[8:1],,,,8/A2/A3/D3,,,,
E4/E3/E2,,,,E1/C/E5,,,,
E8/E7f/E6,,,,,,,,
4/5,,,,5/3,,,,
5/2,,,,5/1,,1,,
1/5,,,,1/6,,,,
1/7,,,1x,1/8,,8,,
1,,8,,2,,7,,
3,,6,,4,,5,,
A1,A2,A3,A4,A8,A7,A6,,
A5/Cf,,,,,,,,
{16}
3/7-2[8:1],,,,7/3-6[8:1],,,,
3/7-2[8:1],,,,7/4v1b[8:1]*v7b[8:1],,,,
4b,,,,8,,1/7,,
2/6,,,,7-5[8:1],,1,,
7-3[8:1]/1h[8:1],,,,7-5[8:1]/1h[8:1],,,,
7-3[8:1]/1h[8:1],,,,1/7,,,,
,,1-3[8:1],,8-4<7[4:1],,1,,
8,,,,2b,,,,
7/3-6[8:1],,,,3/7-2[8:1],,,,
7/3-6[8:1],,,,3/8-5b[8:1]*z4b[8:1],,,,
8b,,,,3x/6x,,2x/7x,,
1/8-4[8:1],,,,8,,3qq4[8:3],,
3,,,,,,5pp4[8:3],,
5,,,,,,1,,
2,,3,,3>6[4:1],,,,
3/6,,,,,,,,
8-6[8:1]/1-5[8:1],,,,8-4[8:1]/1-3[8:1],,,,
8-6b[8:1]/1-5b[8:1],,,,8/1,,,,
8b/1b,,,,8/3,,1/6,,
8/3,,,,1-6[8:1]/7,,,,
1-4[8:1]/3,,,,1-6[8:1]/7,,,,
1-4[8:1]/3,,,,1/7,,,,
7,,2,,8-6[8:1],,1-3[8:1],,
8w4[8:1],,1,,8b,,,,
6,,,7/4,,,8/5,,
8w4[8:1],,,,8,,,,
2/6,,,1/7,,,8,,
1/7h[4:1],,,,,,,,
8/4,,,7/3,,,6/2,,
6-4[8:1]/2,,,,2-4-6-8-2b[2:1]/6,,,,
2/6,,,,,,,,
,,5,,4,,5,,
{16}
3,,6,,5,,4,4h[4:1],
7,,,6,,5,5h[4:1],,
,,2,,2,,7,1,
8,,,2,,8,8,,
1h[8:1],,3h[8:1],,5h[8:1],,7h[8:1],,
1,,8,8,,1,1,,
{64}
A2,A3,A4,,,,,,,,,,A7,A6,A5,,,,,,,,,,A1,A2,A3,,,,,,
,,,,,,,,A8,A7,A6,,,,,,,,,,C,,,,,,,,,,,,
{16}
3,,5,4,5,,3,,
6,5,7,,3,4,2,,
E7/B6,,E3/B2,,E1/B8,,B4/E5,,
C,,2x,2x,2x,,8,,
,6x,6x,6x,,,3h[8:1],,
5h[8:1],,4h[8:1],,6h[8:1],,3,,
4/5,,7,,4/5,,2,,
4/5,,1/8,,3/6,,,,
{16}
5<8[8:1],,,,5/A2/A3/D3,,,,
4>1[8:1],,,,4/A7/A6/D7,,,,
E6/E7/E8,,,,E1/C/E5,,,,
E2/E3f/E4,,,,,,,,
1>4[8:1],,,,1/A7/A6/D7,,,,
8<5[8:1],,,,8/A2/A3/D3,,,,
E4/E3/E2,,,,E1/C/E5,,,,
E8/E7f/E6,,,,,,,,
4/5,,,,5/3,,,,
5/2,,,,5/1,,1,,
1/5,,,,1/6,,,,
1/7,,,1x,1/8,,8,,
1,,1,,8,,8,,
1,2,3,4,5,6,7,8,
A1,A2,A3,A4,A5,A6,A7,A8,
B1,B3,B5,B7,Cf,,,,
{16}
3x/7x-2[8:1],,,,7/3-6[8:1],,,,
3/7-2[8:1],,,,7/4v1b[8:1]*v7b[8:1],,,,
4b,,,,8,,1/7,,
2/6,,,,7-3[8:1]/3-7[8:1],,2/6,,
7-1[8:1]/3-5[8:1],,,,7-5[8:1]/3-1[8:1],,,,
7-1[8:1]/3-5[8:1],,,,7/3,,,,
,,1-3[8:1],,6-3<7[4:1],,1,,
6,,,,2b,,,,
7/3-6[8:1],,,,3/7-2[8:1],,,,
7/3-6[8:1],,,,3/8-5b[8:1]*z4b[8:1],,,,
8b,,,,3x/6x,,2x/7x,,
1/8-5[8:1],,,,8,,3qq4b[8:3],,
3,,,,,,6pp5b[8:3],,
6,,,,,,2,,
3,,4,,4v2<8b[8:2],,,,
4,,,,,,,,
8-6[8:1]/1-5[8:1],,,,8-4[8:1]/1-3[8:1],,,,
8-6b[8:1]/1-5b[8:1],,,,8/1,,,,
8b/1b,,,,8/3,,1/6,,
8/3,,,,1-6[8:1]/7,,,,
1-4[8:1]/3h[8:1],,,,1-6[8:1]/7h[8:1],,,,
1-4[8:1]/3h[8:1],,,,1/7,,,,
7,,2,,8-6[8:1],,1-3[8:1],,
8w4[8:1],,1,,8b,,,,
6,,,7/4,,,8/5,,
8w4[8:1],,,,8,,,,
2/6,,,1/7,,,8,,
1/7h[4:1],,,,,,,,
8/4,,,7/3,,,6/2,,
6>3[8:1]/2,,,,2<7pp2[2:1]/6,,,,
2/6,,,,,,,,
,,5,,4,,6,,
{16}
3h[2:1],,,,,,,,
8qq5[2:1],,,,8/1,,,,
2,,,3,,,4,,
6h[4:1]/4,,,,,,,,
7h[2:1],,,,,,,,
1-4[8:1],,,,1,,,,
7h[8:1],,E4/B3,,7h[8:1],,E3/B2,,
6h[8:1],,E2/B1,,6h[8:1],,E1,,
7h[2:1],,,,,,,,
1pp4[2:1],,,,1/8,,,,
7,,,6,,,5,,
3h[4:1]/5,,,,,,,,
2h[2:1],,,,,,,,
8-4[8:1],,,,8,,2,,
,,2-6[8:1],,8w4b[8:1],,2,,
8bx,Cf,,,,,,,
