&title=MANTIS (Arcaea Ultra-Bloodrush VIP)
&artist=Akira Complex feat. kiraku
&first=-0.738
&des=Colorful Skin
&lv_5=?
&des_5=Colorful Skin
&inote_5=
(135){4},,{2}5pp8b[1:3]/1pp4[4:9],
{1},,,{16}4,
8,3,7,2,6,1,5,{4}1q3[4:1],3<6b[4:1],
6<1[4:1],1q4b[4:1],4<7[4:1],7>2b[4:1],
2q3[4:1],3<6b[4:1],6q7[4:1],7>2b[4:1],
2q4[4:1],4<7b[4:1],7q2[4:1],2>5b[4:1],
{8},,,,6h[8:1]/1h,2h,3h[8:1]/8h,7h,
5h[8:1]/3h,2h,{16}3h[8:1],7h,,,{8}4h[8:1]/7h,1h,{16}3h[8:1],5h,,,6,
5,{8}6,{16}3,4,{8}3,{16}6,5,{8}7,{16}3,4,{8}2,
{16}6,5,{8}8,{16}3,4,{8}1,{16}2,5,2,5,3,6,4,6,
,,,,{4}5v8b[8:3]`1v4[16:1],{64}1b/5v8[8:1],B1,C,B4,,,,,,,,,,,,,{4}5,
{16}4,7b,,3,6,4,5,3,6,4b,,2,5,3,4,2,
5,3b,,2,6-1b[8:3]*-3[16:1],3,7,4,{64}6b-1[8:1],B5,B4,E4,,,,,,,,,,,,,{4}6bx,
{16}3,6b,,4,7,5,6,4,7,5b,,3,6,4,5,3,
6,4b,,7,3-7b[8:3]*>1[16:1],6,2,5,{64}3bz7[8:1],D3,A2,D2,,,,,,,,,{16}3h[16:1],,,{8}A7f,
{16}6,1b,,8,3,7,2,6,1,5b,,2,5,3,6,4,
7,5b,,7,7-2b[0.4444##0.6667]*-4b[0.4444##0.6667],2,8,1,{2}7,
{64}6xh,B6,,,{16}1,1,{64}7xh,B7,,,{16}2,2,{64}8xh,B8,,,{16}3,3,{64}7xh,B7,,,{16}4,4,{64}6xh,B6,,,{16}3,3,{64}7xh,B7,,,{16}2q4[0.4444##0.4444],
2,7x,7x,{4}2/5-2[16:1],{2}5b/A4f,
{16}2x-4[16:1],7h[8:1],,,2-8[16:1],5h[8:1],,,2-7[16:1],6h[8:1],,,2-6[16:1],4h[8:1],,,2,
5,,4,{4}4x>1[16:1],{64}8/4b<7[64:3],7,6,5,,,,,,,,,,,,,8/4b,1,2,3,,,,,,,,,,,,,{16}7x-2[16:1],
3h[8:1],,,7-5[16:1],4h[8:1],,,7-1[16:1],3h[8:1],,,7-3[16:1],5h[8:1],,,7,
2h[16:1],,,{8}1>3[0.4444##0.1111]/8<6[0.4444##0.1111],8z4b[0.4444##0.4074]/1s5b[0.4444##0.4074],1b/8b,1b/8b,{16},,,,4h[8:1],
6,5h[8:1],3,4h[8:1],7,5h[8:1],2,4h[8:1],8,5h[8:1],1,4h[8:1],7,5h[8:1],2,
4h[8:1],6,5h[#0.2222214],3,{48}4xq1b[8:3],3x/6xp1b[48:17],2x/7x,1x/8x,{4},,{16},,{64},,{96},{64}3xh,
B3,,,{16}8,8,{64}2xh,B2,,,{16}7,7,{64}1xh,B1,,,{16}6,6,{64}2xh,B2,,,{16}5,5,{64}3xh,B3,,,{16}6,6,{64}2xh,B2,,,{16}7p5[4:1],
7,2x,2x,{4}7/4-7[16:1],{2}A5f/4bpp7b[0.4444##6.2222]*qq1[0.4444##5.3333],
,,,,{1},
{2},8-5b[8:25]/4-1[2:3],
,,,1-4[4:3],
{12},,,,,,,,,,,,1,
1,1,5,5,5,{8}6/3,2,7/3,2,
3/8,2,3/1,2,4/3,2,3/5,2,
3/6,7,6/2,7,6/1,7,6/8,7,
6/5,7,6/4,7,3/4,8,6/5,1,
5/4,2/7,{48}B1,B2,B3,B4,B5,B6,B7,B8,B1,B2,B3,B4,{8}7-4[16:1],6,1-5[16:1],2,
8-4[16:1],7,2-5[16:1],3,7-4[16:1],6,1-5[16:1],2,
8-4[16:1],7,2-5[16:1],3,6-1[16:1],7,3-8[16:1],2,
7-4[16:1],6,1q5[16:1],2,{48}6,7,8,1,,,,,,,,,{4}2v5[16:1]/5>2b[4:1],
2V86b[4:1],5-8[16:1],5bw1[16:1],5b,
{8}1/5h[32:3],{32}1,2,3,4,{8}5bx/7bx,8/4h[32:3],{32}8,7,6,5,{8}4bx/2bx,4h[16:1]/8h[16:1],{32}8x/4x,7x/3x,6x/2x,5x/1x,
8x/4x,,,5/1,,,{16}2/6,{8}7<4[16:1]/3>8b[8:3],2/6,{64}7b/3>8[8:1],D7,A6,D6,,,,,,,,,,,,,{4}3b,
{8}2h[8:1],{16}8,1h[8:1],,7,{8}8h[8:1],{16}6,7h[8:1],,1,6/2,3/5,{8}4,
3/7,{16}7/2,6/3,{8}4/5s1b[0.4444##0.6667]*<7[0.4444##0.1111],4,{64}5-1[8:1],D6,A6,D7,,,,,,,,,{16}5h[16:1],,,{8}A1f,
{12}8h[24:1]/7h[24:1],2h[24:1]/6h[24:1],{6}5h[24:1]/3h[24:1],{24},2h[24:1]/1h[24:1],,8h[24:1]/1h[24:1],,8h[24:1]/7h[24:1],,,,,{12}7h[24:1]/2h[24:1],5h[24:1]/4h[24:1],8h[24:1]/1h[24:1],
{24},,,{8}1h[12:1]/6h[12:1],{24}2>5b[0.4444##0.6667]/7-3[0.4444##0.1111],8h[12:1]/3h[12:1],,,,,{4}7b/2>5[8:1],2bx,
{64}7x,B7,,,2x,B2,,,6x,B6,,,1x,B1,,,3x,B3,,,8x,B8,,,4x,B4,,,6x,B6,,,3x,B3,,,8x,B8,,,1x,B1,,,7x,B7,,,2x,B2,,,5x,B5,,,1x,B1,,,6x,B6,,,3x,
B3,,,8x,B8,,,2x,B2,,,6x,B6,,,{16}4xv1b[0.4444##0.6667]*v7[0.4444##0.1111],3x,5x,2x,{64}4bv1[8:1],B4,C,B7,,,,,,,,,,,,,{4}4bx,
{8}4/8h[8:1],{32}4,3,2,1,{4}8h[8:1]/4h[16:3],{32}8,7,6,5,{8}8/4h[8:1],{32}8,7,6,5,4h[8:1],3,2,1,
{12}8h[16:1],5,5/1,8<5[0.4444##0.1111],{16},,{64},,{96},{64}4/8b>3[16:1],3,2,1,,,,,,,,,,,,,4/8b,5,6,7,,,,,{32}4bx,5bx,6bx,7bx,
{8}7x/8x,{24}1/6,1/6,,,,3/8,8/3,,,3/6,6/3,,,,5h[24:1],3h[24:1],4h[24:1],{6}2h[24:1],
{8}2/6,{16}3,4,{4}5s1[0.4444##0.6667]/3-7[0.4444##0.1111],{64}3b/5s1[8:1],B3,C,B7,,,,,,,,,,,,,{4}5bx,
{12}4h[24:1]/3h[24:1],6h[24:1]/2h[24:1],{6}1h[24:1]/7h[24:1],{24},6h[24:1]/5h[24:1],,4h[24:1]/5h[24:1],,4h[24:1]/3h[24:1],,,,,{12}3h[24:1]/6h[24:1],1h[24:1]/8h[24:1],4h[24:1]/5h[24:1],
{24},,,{8}5h[12:1]/2h[12:1],{24}6<1b[0.4444##0.6667]/3-7[0.4444##0.1111],4h[12:1]/7h[12:1],,,,,{4}3b/6<1[8:1],6b,
{64}2x,B2,,,7x,B7,,,3x,B3,,,8x,B8,,,6x,B6,,,1x,B1,,,5x,B5,,,3x,B3,,,6x,B6,,,1x,B1,,,8x,B8,,,2x,B2,,,7x,B7,,,4x,B4,,,8x,B8,,,3x,B3,,,6x,
B6,,,1x,B1,,,7x,B7,,,3x,B3,,,5x,B5,,,6x,B6,,,4x,B4,,,7x,B7,,,{4}2xh[4:1],6V41[4:1],
1V74[4:1],4V27[4:1],7V14[4:1],4V61[4:1],
,3V58[4:1],8V25[4:1],5V72[4:1],
2V85[4:1],5V38[4:1],8p6[4:1],6V82[0.4444##0.4444],
,,{8}5/2h[8:1],6,5/2h[8:1],7,
5/2h[8:1],8,5/2h[8:1],1,4/7h[8:1],3,4/7h[8:1],2,
4/7h[8:1],1,4/7h[8:1],8,{16}3,4,3,4,3,5,4,6,
5,6,5,6,4,5,3,4,3,5,3,6,{4}7v4[0.4444##0.1111]/4V27b[0.4444##0.4444],
7V13b[4:1],4-1[16:1],4bw8[16:1],4b,
{16}5,2b,,6,3,5,4,6,3,5b,,7,4,6,5,7,
4,6b,,7,3-8b[8:3]*-6[16:1],6,2,5,{64}3b-8[8:1],B4,B5,E6,,,,,,,,,,,,,{4}3bx,
{16}6,3b,,5,2,4,3,5,2,4b,,6,3,5,4,6,
3,5b,,2,6-2b[8:3]*<8[16:1],3,7,4,{64}6bs2[8:1],D7,A7,D8,,,,,,,,,{16}6h[16:1],,,{8}A2f,
{16}3,8b,,1,6,2,7,3,8,4b,,7,4,6,3,5,
2,4b,,2,2-7b[8:3]*-5b[8:3],7,1,8,{2}2,
{16}7,7,3,3,6,6,2,2,5,5,1,1,6,6,2,2,
7,7,3,3,4q6[4:1],4,8,8,{4}4/7-3[16:1],7b/A6f,
{16}4h[8:1],5h[16:1],,,2bx-4[16:1],7h[8:1],,,2-8[16:1],5h[8:1],,,2-7[16:1],6h[8:1],,,2-6[16:1],
4h[8:1],,,2,5,,,4-2[16:1],5-1[16:1],{8}4-8[16:1],{16}4,5,{8}4,
{16}7bx-2[16:1],1h[8:1],,,7-5[16:1],4h[8:1],,,7-1[16:1],3h[8:1],,,7-3[16:1],5h[16:1],{32},5h[32:1],,,{16}7,
2h[16:1],{32},,,,1q6[8:1],2,3,4,5p1[8:1],6,7,8,{2}1-4[8:1],
{16}6h[16:3],4h[8:1],,,5,3,{8}5,{16}6h[16:3],4h[8:1],,,5,3,{8}5,
{16}6h[16:3],4h[8:1],{64},,,,,,,,5>2b[8:3]*<8b[8:3],B5,C,B1,{4},,{16},,,8,
1,8,2b,8,1,8,1,8,2b,8,1,8,1,8,2b,
8,1,8,1,8,2b,8,1,{2}Cf,
E
