&title=Medjed
&artist=Avans
&first=0
&des=Yiru
&lv_5=13+
&inote_5=(160)
{4}
,,,,
{8}
,,,2h[4:1]/6h[8:5],,,4h[8:17],,
,8<1[2:3],,,,,,,
,,,,,,,,
,7-3[4:1]/3,,,1<3[2:1],,,,
,,,8h[4:1],,,2h[4:1]/6h[8:17],,,4>5[2:3],,,,,,,
,,,,,,,,
,7/3-7[4:1],,,1V75[8:3]*V35[2:1],,,,
,,,6h[8:1]/4,3-6[8:1],,7,7,
,7h[4:1]/5-2[8:1],,,6,5<1[8:3],,1,
2,3,4,5,5-2[8:1],,8,7-4[8:1],
,3h[4:1],,,25,3/6V84[8:3],,4,
4-1[6:1],3,3,2,2,2-6[8:1],,7-3[8:1],
,5,5h[4:1],,1,1-5[8:1],,3V16[8:3],
,6,6-2[8:1],7,7,8,8,8-4[8:1],
,3,2,1h[8:1],5h[8:1],2h[8:1],6h[8:1],3-7[8:1],
7h[8:1],3b,,6V41[8:3]/8,68,,1-6[16:3],2,
,3V58[8:3],3,,8-3[16:3],7,,6,
6,5V73[8:3],5,3,3-8[16:3],,2,2-5[8:1],
,6,6-1[8:1],,3,3-6[8:1],,,
8,5,7,26,,1-5[8:1],5,1,,7-3[8:1],3,7,2,1>5[8:3],,5,
6,7,8,1,5,1w5[1:1],,1,
,,,,,,,,
,1>4[4:1]/5<5[8:6],,15,,,,5<1[8:3],
,,4,4h[2:1],,2-7[8:1],,2,
,3h[8:1],6h[8:1],2h[8:1],5h[8:1],1h[8:1],4>7[8:3],1h[4:1],
,,,2-6[8:1],,,7,8,
5,4>1[4:1]/8<8[8:6],,48,,,,8<4[8:3],,,2,2h[2:1],,3-6[8:1],,3,
,8h[8:1],7h[8:1],1>5[2:1],,,5,5<1[2:1],,,,1>5[2:1],,,6,6-1[8:1],
,6,,8-4[8:1]/3h[4:1],,8,,3h[4:1]/7-5[8:1],
,7,3,3h[4:1]/8-4[8:1],,8,,3h[4:1]/7-5[8:1],
,7,2,1-5[8:1]/6,6h[8:1],1,6,6h[4:1]/2-4[8:1],
,2,,6h[4:1]/1-5[8:1],,1,6,6h[8:1]/2-4[8:1],
,26,6,56,7,34,2,56,
8,34,1,57,8,24,1,56
,7,34,
{16}
2,,1,8,2,7,3,6,4,5,
{32}
4,3,2,1,8,7,6,5,4,3,2,1,8,7,6,5,,,,,
{16}
,,5-1[8:1],,,,5-2[8:1]*-8[8:1],,
,,,,,,
{32}
1b<5[16:3],2,3,4,
{16}
,,1,,,,2,,4-8[8:1],3,5h[8:1],,4,,6-2[8:1],,,,6,,,,3h[8:1],,
1h[8:1],,4>8[16:3],,8,,4/7-3[8:1],,,,7,,,,2-6[8:1],,
1h[8:1],,2,,8<4[16:3],,,,8,,3h[8:1],,,,1-5[8:1],2,
8h[8:1],,1,,,,
{32}
8b>4[16:3],7,6,5,
{16}
,,8,,,,7,,
5-1[8:1],6,4h[8:1],,5,,3-7[8:1],,,,3,,,,6h[8:1],,8h[8:1],,
5<1[16:3],,1,,5/2-6[8:1],,,,2,,,,7-3[8:1],,
5h[8:1],,7,,4>8[16:5],,,,8,,7,,6,,5<1[16:4],,
1,,,,,,
{32}
2b-7[8:1],3,4,5,
{16}
,,2,,,,4,,
6-1[8:1],6,5h[8:1],,6,,4-1[8:1],,,,4,,,,7h[8:1],,8h[8:1],,
6-2[8:1],,1,,6/1>5[16:3],,,,1,,,,8-4[8:1],,
4,,8,,3-7[8:1],,,,3,,5,,5,,1-6[8:1]/6,2,
3,4,15,,,,
{32}
7b-2[8:1],6,5,4,
{16}
,,7,,,,5,,
3-8[8:1],3,4h[8:1],,3,,5<8[8:1],,,,5/1-5[8:1],,,,1,,
2,,3V17[16:3],,4,,3/6-2[8:1],,,,6,,,,3-6[8:1],,
1,,3,,8-4[8:1],,,,8,,3,,2,,
1-5[8:1],,,,1/8<3[4:1],,,,3b<8[4:1],,,,2h[8:1],,,,2,,
7v4[8:1],8,7,,7,,8-3[8:1],,,,8/5V71[16:3],,,,5,,
4,,3V17[16:3],,2,,4v6[8:1]/3,,,,4,,,,1-5[8:1],,
8-4[8:1],,1,,8,,3h[8:1],,2h[8:1],,1h[8:1],,8h[8:1],,7h[8:1],,
6h[8:1],,5h[4:1],,,,
{32}
1b>4[8:1],8,7,6,
{16}
,,1,,,,7,,
5-1[8:1],5,6h[8:1],,5,,6-2[8:1],,,,6/4V28[16:3],,,,4,,
5,,6V82[16:3],,7,,6/5v3[8:1],,,,5,,,,8h[8:1],,
4h[8:1],,7,,3,2,6,,6h[8:1],,2,,2h[8:1],,8-4[8:1],,
1,,8>5[4:1],,,,5b>8[4:1],,,,6h[8:1],,,,6,,
7v4[8:1],8,7,,7,,8V24[16:3],,,,8/6-2[8:1],,,,6,,
5,,4V27[16:3],,3,,4/5-8[8:1],,,,5,,,,1-5[8:1],,7,,
1,,6V84[4:1],,,,6/4,,3,,2,,1-5[8:1],,
5,,1,,,,
{32}
8b-3[8:1],7,6,5,
{16}
,,8,,,,5,4,
5-1[8:1],4,5,,5,,3V17[16:3],,,,3/6-2[8:1],,,,6,,
5,,4v6[8:1],,3,,4/3V17[16:3],,,,3,,,,
5-1[8:1],,1,,5,,3-7[8:1],,7,,3,,8w4[10:1],,8,,8b,,
,,,,,,1b>4[8:1]/7b,,,,1-6[8:1],,8,,1,,
,,2-5[8:1],,,,2-7[8:1],,,,2<5[16:3],,,,2,,
,,,,,,8<5[8:1]/2,,,,8-3[8:1],,1,,8,,
,,7-4[8:1],,,,7-2[8:1],,,,7>4[16:3],,,,7,,
,,,,,,1>4[8:1]/7,,,,1-6[8:1],,8,,1,,
2,,2>6[4:1],,,,6<2[4:1],,,,2>6[4:1],,,,6<2[4:1],,
,,,,,,5-8[8:1],,,,5>5[8:3],,,,5,,
,,,,8w4[8:1],,8,,,,,,,,1>5[8:1]*<5[8:1],,
,,,,,,1b>4[8:1],,7,,1-6[8:1],,8,,1,,
3,,2-5[8:1],,,,2-7[8:1],,,,2-6[8:1],,,,2,,
1,,8,,7,,7-4[8:1],,1,,7>2[8:1],,8,,7,,
6,,6-1[8:1],,,,6-3[8:1],,,,6<1[8:1],,,,6,,
2,,3,,4,,5-2[8:1],,7,,5<8[8:1],,6,,5,,
1,,1>5[4:1],,,,5<1[4:1],,,,1>5[4:1],,,,5-1[8:1],,
,,,,,,7,,8,,7,,,,8b<1[1:1]*>7[1:1],,
,,,,,,,,,,,,,,,,
,,,,,,1V35[16:3]/8,,,,1,,8,,7-3[8:1],,
,,7,,4h[8:3],,,,,,1<5[4:1],,,,5-1[8:1],,
,,,,,,2<6[4:1],,,,6>2[4:1],,,,8-4[8:1],,
,,8,,1h[8:3],,,,,,5<1[4:1],,,,1v7[8:1],,
,,,,,,8/2V46[8:1],,,,2,,1,,8-4[8:1],,
,,8,,5h[8:3],,,,,,3V15[4:1],,,,5-7[8:1],,
,,,,,,8<4[4:1],,,,4>8[4:1],,,,2-6[8:1],,
,,2,,7h[8:3],,,,,,5V38[4:1],,,,8-4[8:1],,
,,,,,,2b/6b,,1-5[8:1],,5V37[4:1],,1
,,7>3[4:1],,
,,6-2[8:1],,,,,,,,4>8[4:1],,,,8-3[8:1]*-5[8:1],,
,,,,,,27,,6-1[8:1],,1V73[4:1],,6,,3<7[4:1],,
,,2-6[8:1],,,,,,,,8<4[4:1],,,,4v2[8:1]*v6[8:1],,
,,,,,,15,,2-6[8:1],,6V48[4:1],,2,,8>4[4:1],,
,,7-3[8:1],,,,,,,,5V31[4:1],,,,1-5[8:1]*-6[8:1],,
,,,,,,47,,8-3[8:1],,3V15[4:1],,8,,5<1[4:1],,
,,4-1[8:1],,,,,,,,8<4[4:1],,,,4-8[8:1],,
,,1w5[8:1],,,,
