&title=Cross Illusion
&artist=美郷あき / PCゲーム「俺たちに翼はない アフターストーリー」
&first=1.66
&wholebpm=165
&demo_seek=50
&demo_len=29.6
&lv_5=13+
&des_5=Reflector ANNET 襲来!! ◯◯Precious...
&inote_5=(165)
{16}
5,6,7,8,1,2,3,4,{8}5b<4[8:3]*p4[8:3],,,,,,,3,3^6[8:1],,8,,
7p3[8:1],,2,,2bqq3[8:3],,,,5,6,7,8V26[4:1],,2,,3h[8:4],,8,8,,
4p1[2:1]/5,,,,8,7,6,5-7[8:1],,5,2-6[8:1],,2/8-3[8:1]*-5[8:1],,8,,
2b/6,4/8b,,4b/8,2/6b,,1b/5,3/7b,,3b/7b,1bpp4[8:4]/5bpp8[8:4],,,,,,,,
34,3,25,3,46,46,4v6[8:1]/6v4[8:1],,4V25[4:1]/6V85[4:1],,,,,,
34,2,17,7,3,8,2,6,4V62[2:1],,6,,2qq5[8:3],,6,,6,,7,1,8,3,3,6,
6/5-1[4:1],,1V35[4:1],,5-1[4:1],,7,6,6^3[8:1],,6,2-5[8:1],,21,,
8h[8:5],,1,2,3,4-2[8:1],6p4[8:3],4,6,,,3,3,25,3,48,7,
2-6[4:1]/6,,6V48[4:1],,8V24[4:1],,6,,7,,
8,8,2,2,25,3,4-8[8:1]/6,,4/6-2[8:1],,6/1-5[8:1],,1/8w4[8:1],,,,
{16}2,6,2,,{8}3,4,48,7,3V51[2:1]/6,,5,,1V73[8:3],,7,6,6h[8:3],,
4,4-8[8:1]*-2[8:1],,4,,7h[8:7],,5,,4,3^6[8:1],3,,,
{16}8h[16:3],,,6h[16:3],,,4h[16:2],,2h[16:3],,,1h[16:3],,,
5h,,{8}5>5[8:4]*<5[8:4],,,,,,,,
{16}4V25[4:1],,,2,,,1,,8V61[4:1],,,6,,,5,,4V25[4:1],,,2,,,1,,
1p8[4:1],,,,,,,,3V15[4:1],,,1,,,8,,7V51[4:1],,,5,,,4,,
3V51[4:1],,,5,,,6,,7V15[4:1],,,,3,,2,,{8}1b>1[2:1]*<1[2:1],,,,,,,
{16}2,3,4h[16:3],,,8h[16:9],,,{8}6-2[8:1],6,,,,
{16}1,2,3,4,7,6,5,4,{32}2-6[8:1],3,4,5,6,7,8,1,{8}2/6b,,
{8}
2v4[8:1]/6v4[8:1],2,6v8[8:1]/2,,2v4[8:1]/6v4[8:1],2,26,,
3v5[8:1]/7v5[8:1],3,3v1[8:1]/7,,7v5[8:1]/3v5[8:1],7,37,,
{4}
2v4[8:1]/7v5[8:1],2v8[8:1]/7v1[8:1],2-6[8:1]/7-3[8:1],2-4[8:1]/7-5[8:1],
2v4[8:1]/7v5[8:1],2V84[4:1]/7V15[4:1],,,
2v3[8:1]/6v7[8:1],2-8[8:1]/6-4[8:1],2v4[8:1]/6v8[8:1],62,
7v6[8:1]/3v2[8:1],7-1[8:1]/3-5[8:1],7v5[8:1]/3v1[8:1],37,
{8}2h[8:1]/6h[8:1],,15,1-3[8:1]/5-7[8:1],,1-4[8:1]/5-8[8:1],,
1-5[8:1]/5-1[8:1],,1pp5[8:3]/5pp1[8:3],,1b/5b,,,,,
{4}
2v4[8:1]/5v7[8:1],5-3[8:1],5v7[8:1]/8v2[8:1],8-6[8:1],
8v2[8:1]/3v5[8:1],3v6[8:1],3v1[8:1]/7v1[8:1],
3v5[8:1]/7v5[8:1],3v2[8:1]/7v6[8:1],3v8[8:1]/7v4[8:1],
3v5[8:1]/7v1[8:1],3-6[8:1]/7,3/7v1[8:1],7/5w1[8:1],,,
2v8[8:1]/7v5[8:1],2v4[8:1]/7v1[8:1],2v8[8:1]/7v5[8:1],27,
7v1[8:1]/2v4[8:1],7v5[8:1]/2v8[8:1],7v1[8:1]/2v4[8:1],27,
3v4[8:1]/8v1[8:1],3-5[8:1]/8-6[8:1],3-7[8:1]/8-4[8:1],38,
{16}
5,4,3,2,8,7,6,5,{32}1-5[8:1],2,3,4,5,6,7,8,{8}1/5b,,
8<4[4:1],,4>8[4:1],,
8<4[4:1],,4>8[4:1],,
8V64[4:1],,4V28[4:1],,
8V64[4:1],,4,,
1>5[4:1],,5<1[4:1],,
1>5[4:1],,5<1[4:1],,
1V35[4:1],,5V71[4:1],,
1>5[4:1],,5,,
8p4[4:1],,4p8[4:1],,
8p4[4:1],,4p8[4:1],,
8<4[4:1],,4>8[4:1],,
8<4[4:1],,4,,
1b,3b/7,,4b,2b/6,,1b/5,3/7b,,4b/8,
2qq5[8:3]/6bpp3[8:3],,,,,,{4}4b>4[4:11],,,,,,{8},,,
{16}4,,,,5,,,,{8}7,,,,{1}1b-5[1:1],,,E,
&inote_6=(165)
{16}
5,6,7,8,1,2,3,4,{8}5b<4[8:3]*p4[8:3],,,,,,,3,3^6[8:1],,8,,
7p3[8:1],,2,,2bqq3[8:3],,,,5,6,7,8V26[4:1],,2,,3h[8:4],,8,8,,
4p1[2:1]/5,,,,8,7,6,5-7[8:1],,5,2-6[8:1],,2/8-3[8:1]*-5[8:1],,8,,
2b/6,4/8b,,4b/8,2/6b,,1b/5,3/7b,,3b/7b,1bpp4[8:4]/5bpp8[8:4],,,,,,,,
34,3,25,3,46,46,4v6[8:1]/6v4[8:1],,4V25[4:1]/6V85[4:1],,,,,,
34,2,17,7,3,8,2,6,4V62[2:1],,6,,2qq5[8:3],,6,,6,,7,1,8,3,3,6,
6/5-1[4:1],,1V35[4:1],,5-1[4:1],,7,6,6^3[8:1],,6,2-5[8:1],,21,,
8h[8:5],,1,2,3,4-2[8:1],6p4[8:3],4,6,,,3,3,25,3,48,7,
2-6[4:1]/6,,6V48[4:1],,8V24[4:1],,6,,7,,
8,8,2,2,25,3,4-8[8:1]/6,,4/6-2[8:1],,6/1-5[8:1],,1/8w4[8:1],,,,
{16}2,6,2,,{8}3,4,48,7,3V51[2:1]/6,,5,,1V73[8:3],,7,6,6h[8:3],,
4,4-8[8:1]*-2[8:1],,4,,7h[8:7],,5,,4,3^6[8:1],3,,,
{16}8h[16:3],,,6h[16:3],,,4h[16:2],,2h[16:3],,,1h[16:3],,,
5h,,{8}5>5[8:4]*<5[8:4],,,,,,,,
{16}4V25[4:1],,,2,,,1,,8V61[4:1],,,6,,,5,,4V25[4:1],,,2,,,1,,
1p8[4:1],,,,,,,,3V15[4:1],,,1,,,8,,7V51[4:1],,,5,,,4,,
3V51[4:1],,,5,,,6,,7V15[4:1],,,,3,,2,,{8}1b>1[2:1]*<1[2:1],,,,,,,
{16}2,3,4h[16:3],,,8h[16:9],,,{8}6-2[8:1],6,,,,
{16}1,2,3,4,7,6,5,4,{32}26,3,4,5,6,7,8,1,{8}2/6,,
(82.5)
{8}
4^1[16:1],1/8^5[32:1],46,82,
