&title=ツインテール・ドリーマー!(レッドver.)
&artist=テイルレッド(CV:上坂すみれ)
&first=0
&des=222億回のテールオン
&lv_5=14
&inote_5=(198)
{1},
{8}3,3,4,3h[8:3],,,7,7,
{8}5,6h[4:1],1b,1b,2b/8b,2b^4[8:1]/8b^6[8:1],,2bv5[8:4]/8bv5[8:4],
{8},,,,,,,6bV85[2:1]/4bV25[2:1],
{8},,,,,,,2bV84[16:5],
{8},,,,5bV73[16:5],,,,
{8}2h[4:1],,4h[4:1],,{16}3,5,4,6,5,,3b/7b,,
{8},2,2pp1[16:5],,2/8,,6pp5[16:5],,
{8}6/4,,2pp1[16:5],,2/8,,7,7h[4:1],
{8},3,3qq4[16:5],,3/5,,7qq8[16:5],,
{8}7/1,,3qq4[16:5],,3/5,,7b,,
{8}6/5,4,3h[4:1],,1h[4:1],,8h[4:1],,
{8}6h[4:1],,5h[4:1],,4-8[8:1],,3,,
{8}7/1,2,3h[4:1],,4h[4:1],,5h[4:1],,
{4}6h[4:1],8h[4:1],1-5[8:1],3,
{8}4/6,7,8h[4:1],,6h[4:1],,4h[4:1],,
{8}2h[4:1],,8h[4:1],,6^3[8:1],,7,,
{4}2h[8:1]/4h[8:1],3h[8:1]/5h[8:1],6h[8:1]/4h[8:1],7h[8:1]/5h[8:1],
{16}7/5,,7,,7/1,,,,2/8,,4,5,3h[8:1],,5,,
{4}2b-5[8:1]/6b,6,4-1[8:1]/6,6,
{4}8-3[8:1]/7,7,2^5[8:1]/7,7,
{4}8-4[8:1]/3,3,6^1[8:1]/3,3,
{4}7p4[16:7]/5,4,3,2,
{4}2-5[8:1]/6,1,7-4[8:1]/3,8,
{4}1-4[8:1]/2,5,8-5[8:1]/7,4,
{8}3^6[8:1]/6,,7,,8h[4:1],6,5,4V25[4:1],
{8},4,8-4[8:1],,8,,{16}3,5,3,5,
{8}3bV52[4:1],,6,7-3[8:1],,78,1,2,
{8}4>8[4:1]/5,,8V25[4:1],,7,,6h[4:1],,
{8}4V25[4:1],,7,8-4[8:1],,8/4,3,2,
{8}1-3[8:1]/5-1[8:1],,,,8-6[32:3]/4-8[8:1],,,,
{8}6V47[4:1],,3,2-6[8:1],,21,8,7,
{4}4V28[4:1]/5,8V64[4:1],4>8[4:1],8<4[4:1],
{8}4,,8h[4:1],,2,3,4/5,6h[4:1],
{8},5,4/7,,1b-5[8:1]/8b-4[8:1],,,,
{8}7bpp8[8:3]/3bV58[8:3],,,,,,,1b/7b,
{8},,3^6[4:1],,6^1[4:1],,1^4[4:1],,
{8}4qq5[8:3],,,,6pp4[8:3],,,2b,
{8},,3/5,,2/6,2/6,,1/7,
{8}1-3[8:1]/7-4[8:1],,,,5-1[8:1]/6-2[8:1],,,,
{4}8/7,5/6,4/3,1/2,
{1}7bp4[1:1]/8bpp3[1:1],
{8},,,,3,4,5,6,
{8}2/7,1^4[8:1]/8,,8^5[8:1]/1,,1v8[32:5]/8,,1b,
{8},,1/7,2/6,3/5,4^1[8:1],,4b/7-3[8:1],
{8},8,8h[4:1],,4-7[8:1],1-3[8:1],4,1,
{8}6h[4:1],,3^6[8:1],,8,8-4[8:1],,5b-2[8:1]/8,
{8},7,7h[4:1],,1-5[8:1],6-1[8:1],1,6,
{8}3h[4:1],,7-3[8:1],,4,4-7[8:1]*-8[8:1],,4b,
{8},1/2,1<3[4:1]/2,,3V57[16:3],,1<3[4:1],,
{8}3V57[16:3],,1<3[4:1],,3V57[16:3],,1,,
{16}3h[4:1],,,,6,5,7p3[8:1],,,,7/1-4[8:1]*-6[8:1],,,,1b,,
{8},,8/2,7/3,6/4,5^8[8:1],,5b/2-6[8:1],
{8},1,1h[4:1],,5-2[8:1],8-6[8:1],5,8,
{8}3h[4:1],,6^3[8:1],,1,1-5[8:1],,4b-7[8:1]/1,
{8},2,2h[4:1],,8-4[8:1],1,2/8,3,
{8}3bV15[4:1],,5V73[4:1],,3,,8,8h[4:1],
{8},5,5-1[8:1],,6,,8-4[8:1]/3,,
{8}2-5[8:1]/8,,7-4[8:1]/2,,1-5[8:1]/7,,7,7h[4:1],
{8},3,3^8[8:1],,5,,1-5[8:1]/6,,
{8}7-4[8:1]/1,,2-5[8:1]*-6[8:1]/7,,2,,4b/7bpp4[4:7],4b>5[8:13]/7,
{1},
{1},
{8}2h[4:1],,4h[4:1],,3h[4:1],,5,4,
{8}6,5,7h[4:1],,4,,{16}2/5,,3,4,
{8}3b>5[2:1],,,,,,4,,
{8}4>6[2:1],,,,5,,4,,
{24}2,3,4,5h[4:1],,,1,,,1,8,7,6h[4:1],,,,,,2,,,2,3,4,
{16}5h[4:1],,,,1,,,,2,4,3,6,5,7,1b,,
{8},3/4,3/4,2/5,7/8,1,7/8,6,
{8}4/5,3,2,{16}1,7,1,7,1,,2/6,,2/6,,
{8}3/5,2,4/6,7,3/5,1,4/6,8,
{8}2/5,3,4,2/5,7/4,6,5,1b/8b,
{16},,3h[8:3],,4,,4,,2,1,8,7,6,5,4/1b,,
{16},,5h[8:3],,4,,4,,6,7,8,1,2,3,4/7b,,
{16},,2h[8:3],,3,,3,,1,8,7,6,5,4,3/1b,,
{16},,1/8,2,3,4,5/7,,,,8/4,7,6,5,4b/3b,,
{16},,2/4,1,8,7,6h[8:1],,1,8,7,6,5h[8:1],,8,7,
{16}6,5,4/8,,7,,2b/6b,,3/4,,2,,2,,1/8,,
{8}6/4,7,5/3,2,6/4,8,5/3,1,
{8}7/4,6,5,7/4,2/5,3,4,8b/1b,
{16},,6h[8:3],,5,,5,,7,8,1,2,3,4,5/8b,,
{16},,4h[8:3],,5,,5,,3,2,1,8,7,6,5/2b,,
{16},,6h[8:3],,5,,5,,1,2,3,4,5,6,7,8,
{24}5b,4,3,2,1,8,7b/3b,,,,,,{16}4b/5b,,,,7b/8b,,,,
{8}2b>5[16:6]/6b<1[16:6],,,,,,,7b/3b,{8},,6^3[4:1],,3^8[4:1],,8^5[4:1],,
{8}5pp4[8:3],,,,3qq5[8:3],,,7b,{8},,6/4,,7/3,7/3,,8/2,
{8}8-4[8:1]/2-5[8:1],,,,3-7[8:1]/6-1[8:1],,,,
{4}2/8,3/5,6/4,1/7,
{1}4b>5[4:3]/5b<4[4:3],
{8},,7h[8:61],,6,5,4,3h[8:56],
{1},
{1},
{1},
{1},
{1},
{1},
{1},
{8},,,,,,,2h[8:8],
{8},,,,,,,4h[8:8],
{8},,,,,,,5h[8:8],
{8},,,,,,,7h[8:8],
{8},,,,,,,1h[8:13],
{8},,,,,,3,,
{8}4,,5,,6,,7V58[1:1],1V38[8:7],
{1},
{8},,1/5,2/6,3/7,4^1[8:1]/8,,7-3[8:1]/4b,
{8},8,1,2,4-8[8:1],3^6[8:1],4,3,
{8}7h[4:1],,5-2[8:1],6,7/5,8-4[8:1],,3b^8[8:1]/8,
{8},5,6,7,1-5[8:1],7^4[8:1],1,7,
{8}3h[4:1],,5-1[8:1],1,2/5,3-7[8:1]*-8[8:1],,3b,
{8},1/6,8>6[4:1]/7,,6V42[16:3],,8>6[4:1],,
{8}6V42[16:3],,8>6[4:1],,6V42[16:3],,8,,
{16}6,,8,7,6,5,4/2q6[8:1],,,,8w4[8:1],,,,8b,,
{16},,,,2,1,3,8,4,7,5^8[8:1],,,,2-6[8:1]/5b,,
{8},1,8,7,5-1[8:1],6^3[8:1],5,6,
{8}2h[4:1],,4-7[8:1],3,2/4,1-5[8:1],,6b^1[8:1]/1,
{8},4,3,2,7-4[8:1],3-7[8:1],7,3,
{8}5V71[4:1],,1V35[4:1],,5<2[16:5],,1,1h[4:1],
{16},,3,4,5,6,7,8,1/2,,,,3-5[8:1]/5,,,,
{8}7-3[8:1]/3,,1-7[8:1]/7,,1/5-1[8:1],,3,3h[4:1],
{8},7,7-3[8:1]*-4[8:1],,7b,,2-8[8:1]/5,,
{8}6-2[8:1]/2,,4-6[8:1]/6,,8-4[8:1]/4,,2,2h[4:1],
{8},6,6-1[8:1]*-2[8:1],,6b,,8^5[8:1]/3,,
{8}3^8[8:1]/8,,6^3[8:1]/3,,1-5[8:1]/6,,7,7h[4:1],
{8},4,4-7[8:1]*-8[8:1],,4b,,1^4[8:1]/6,,
{8}6^1[8:1]/1,,3^6[8:1]/6,,8bqq5[8:7]/3,,,4bqq1[8:4],
{8},,,,,,,2/6h[4:1],
{8},4,4h[4:1],,7-3[8:1],,2,2h[4:1],
{8},4,4h[4:1],,1^6[8:1],2,3,4h[4:1],
{8},5,5h[4:1],,2-6[8:1],,7,7h[4:1],
{8},5,5h[4:1],,8^5[8:1],1,2,3,
{8}2b/4b,,6/5,4b/7b,,2/1,3b/8b,4bV26[8:5]/7bV15[8:5],
{1},
{16}3,4,5,6,,,,,,,,,,,,,
