&title=Meissa
&artist=Yvya
&first=-0.03
&des=伊草ハルカ
&lv_5=14
&inote_5=(174)
{4},,
(348),,
(174)
{1}6>7[4:7]/4h[4:6],,3V51[4:6],,
{8}7/4,6,5,7h[4:1]/4,,4,3/6,5,4,6h[4:1]/3,,
4,3/6,5,4,3,
{32}6<5[4:6]/2h[4:7],5,4,,
{8},,,,,,,
{1},
{8}5-7[12:1]/3,,3,2h[4:1],,6,7-5[12:1]/4,,4,3h[4:1],,4,5<8[8:1]/2,,5/3,,
4-2[12:1],,6,7h[4:1],,3,2>8[16:7]/5,,5,6h[8:4],,,,,
{16}1,2,3,4,
{8}5/7V51[8:2],,4/7,3h[4:1],,8,7/2>5[8:1],,6/2,7h[4:1],,
4,3/6,5,4/3,2,5-7[12:1],,5/2,3h[4:1],,7,7h[8:3],,,
{16}5,4,
{8}3h[8:3],,,,
{16}5,6,7,8,
2,1,2,1,3h[8:1],,5,4,,6,5,,7,6,5,4,1,2,3,4,5/6,7,8,1,4,3,2,1,7,6,5,4,
{8}2-6[8:1],,4,4<7[8:1],,1/4,,
8-4[8:1]/3-8[8:1],,8/3,,6/1-5[8:1],,1/6,,
7<2[8:3],8p2[8:2],,,,,4,5,6,7h[8:1],8,7h[8:1],5,7h[8:1],2,7h[8:1],4,
{16}7<4[8:1],,,3,,,2,,1q5[8:1],,,5,,,6,,7p3[8:1],,,4,,,2,,1>4[8:1],,,5,,,6,,
8bz4[4:1]*-4[4:1],,,,,,,,,,,,
6h[64:1]/3h[64:1],,,7V51[16:3],,,5,,2-4[12:1],,,,
2h[64:1],,,6V48[16:3],,,4,,1-3[12:1],,,,
1h[64:1],,,7v5[16:2],,,3,,3,,,,
3h[64:1]/6h[64:1],,,2V48[16:3],,,4,,7-5[12:1],,,,
7h[64:1],,,3V51[16:3],,,5,,8-6[12:1],,,,
8h[64:1],,,4V62[16:3],,,6,,1-7[12:1],,,,
1h[64:1],,,2v4[16:2],,,6,,6,,,,
7h[16:3]/3b,,,5,6,,4,,5/3,,2,,
2h[16:3]/6,,,4,3,,5,,6/4,,7,,
{8}8v5[8:1],,8/2,3-8[8:1],,6/3,7<4[8:1],,7/2,1-5[8:1],,1,
{4}6-1[8:1],6/2-5[8:1],8/2,3-8[8:1],3/7-4[8:1],7/1,
{8}2/5,2,6/3,3,7/4,4,
{16}1,2,8,3,7,4,6,5,7/4,,,,
{16}7b/4,,6,5,7h[8:1],,5,5,6,,
7b/4,,6,5,7h[8:1],,5,5,6,,
7b/4,,6,5,7h[8:1],,5,5,6,,
7h[8:1]/4,,4,,6/5,,4,4,5,,6/2,,3,3,4,,
2b/5,,3,4,2h[8:1],,4,4,3,,
2b/5,,3,4,2h[8:1],,4,4,3,,
2b/5,,3,4,2h[8:1],,4,4,3,,
{2}5s1[8:6]/2,,
{16},,,,
6,5,6,3,4,3,6,5,6h[8:1],,
2,4,2,7,5,7,2,4,2h[8:1],,
7,5,6,2,4,3,7,5,6h[8:1],,
2b,3,4/5,6,7,2b,3,4/5,6,7,
3,1,2,7,8,6,3,4,2h[8:1],,
7,5,6,3,4,2,7,8,6h[8:1],,
2,4,3,6,5,7,2,1,3h[8:1],,
7,8,6,2,1,3,5,4,6h[8:1],,
1b,2,3/4,5,6,2b,3,4/5,6,7,2b,3,4/5,6,7,3b,4,5/6,7,8,
2,1,2,1,3,8,3,8,2,7,2,7,1-5[8:1],6,1,6,,,,,
7b/2b,,3,6,4,6,5,6,7-4[8:1],,8,,1q5[8:1]/7,,2,,1/6,,7,,
8/3,,6,3,5,3,4,3,2>5[8:1],,1,,8-4[8:1]/2,,7,,8/3,,2,,
1/6,,8,7,1,7,2,7,3v8[8:1],,4,,3/6-4[12:1],,7,,6/1,,2,,
8/3,,1,2,8,2,7,2,6,5,4/3,2,1/8,7,6/5,4,3,2,1/4,,
7/2,,6,3,5,3,4,3,2-5[8:1],,1,,8-4[8:1]/2,,7,,8/3,,2,,
1/6,,3,6,4,6,5,6,7<4[8:1],,8,,1q5[8:1]/7,,2,,1/6,,7,,
8/3,,1,2,8,2,7,2,6-1[8:1],,5,,6/3<5[12:1],,2,,3/8,,7,,
6,2,4,3,5,2,8,4,6,5,8,2,
{24}7,6,5,1,2,3,8,7,6,2,3,4,
{16}8b/5b,,6,5,7,,2/8,,3,5,4,,7h[4:1],,
{32}8,1,2,3,
{16}4,,,,7/4,,3,4,2,,7/1,,6,4,5,,2h[4:1],,
{32}1,8,7,6,
{4}5<4[8:4],7h[8:4]/5,
{8},,,,7/5<8[8:1],6,5/4,3,2v5[8:1],,6,7-2[8:1],,5,5>2[8:1],,
{32}1,8,7,6,
{16},,
{16}1b,5,1,6,1,7,2,6,2,7,2,8,
2,3,4,5,8,7,6,5,
2,4,2,5,2,6,3,5,3,6,3,7,
4,3,2,1,7,6,5,4,
1b,5,1,5,2,7,2,7,3,8,3,8,4,7,4,7,2,5,2,5,
3b,6,4,6,5,6,7,6,8,6,1,6,
{32}2,3,4,5,6,7,8,1,2,3,4,5,6,7,8,1,
(162)
{1}6b/2bV46[8:14]*>2[4:14],,,
{2},
(156)
{2},
(150)
{12}7,5,6,4,5,3,6,4,5,3,4,2,
(140)
{12}7,4,6,3,5,2,
(130)
{12}7h[12:1],,5h[12:1]/6h[12:1],,
(124)
{12}3h[12:1]/4h[12:1],,
{48}2h[4:8]/5>5[4:7],6,7,
{1},,
