&title=Convulsion
&artist=Mona (Red hood)
&first=0.01
&des=SP七级 haha
&lv_5=1+
&inote_5=(156){1},
{4}1/2h[8:1],{16}1,1,2,2,8,,8,8,1h[8:1],,,,
{4}8h[8:1]/7,34,2/1h[8:1],6/5h[8:1],
7h[8:1]/8,34,2h[8:1]/1,6h[8:1]/5,
8h[8:1]/7,34,2/1h[8:1],6/5h[8:1],
7h[8:1]/8,{8}34,12,{4}2h[8:1]/1,{8}6h[8:1]/5,5b,
{4}8h[8:1]/7b,34,2/1h[8:1],6/5h[8:1],
7h[8:1]/8,34,2h[8:1]/1,6h[8:1]/5,
8h[8:1]/7,34,2/1h[8:1],6/5h[8:1],
7h[8:1]/8,{8}34,12,{4}2h[8:1]/1,6h[8:1]/5^8[8:1],
{16},,,,2,2,1,1,4,,4,4,1h[8:1],,2,,
{8}8h[2:1],7,,7,,8,5^8[8:1],6,
{16},,,,2,2,1,1,4,,4,4,1h[8:1],,2,,
{8}8h[2:1],7,,7,,8,5^8[8:1],6,
{16},,,,2,2,1,1,4,,4,4,5^8[8:1],,6,,
{16},,,,2,2,1,1,4,,4,4,5^8[8:1],,6,,
{16},,,,2,2,1,1,4,,4,4,5-8[8:1],,6,,
{4}5-1[8:1]/8b,5-2[8:1]/1b,5-1[8:1]/2b,5b/1b,
{16}7/5h[8:1],,6,,53,3,1,1,2-5[8:1],,2,2,6h[8:1],,,,
{16}7/5h[8:1],,6,,53,3,1,1,2-7[8:1],,2,2,6h[8:1],,,,
{16}7/5h[8:1],,6,,53,3,1,1,2-5[8:1],,2,2,6h[8:1],,,,
{16}7/5h[8:1],,6,,53,3,1,1,12,,12,,87,,87,,
{16}2/4h[8:1],,3,,46,6,8,8,7-4[8:1],,7,7,3h[8:1],,,,
{16}2/4h[8:1],,3,,46,6,8,8,7-2[8:1],,7,7,3h[8:1],,,,
{16}2/4h[8:1],,3,,46,6,8,8,7-4[8:1],,7,7,3h[8:1],,,,
{16}2/4h[8:1],,3,,46,6,8,8,71,,71,,82,,28,,
{16}7/5h[8:1],,6,,53,3,1,1,2-5[8:1],1,2,8,2,,7,,
{16}7/5h[8:1],,6,,53,3,1,1,2-7[8:1],3,2,4,2,,6,,
{16}7/5h[8:1],,6,,53,3,1,1,2-5[8:1],1,2,8,2,,8h[64:1],,
{4}8h[64:1],{8},1,1b/8-4[8:1],,1b/8b,,
{16}2/4h[8:1],,3,,46,6,8,8,7-4[8:1],8,7,1,7,,2,,
{16}2/4h[8:1],,3,,46,6,8,8,7-2[8:1],6,7,5,7,,3,,
{16}2/4h[8:1],,3,,46,6,8,8,7-4[8:1],8,7,1,7,,2,,
3b/2b,,,8b/1b,,,7b/6b,,4b/5b,,4b/5b,,3b/6b,,,,
7,,7,7,,,8,8,1,1,3,,1,,3,,5,,3,,1,,3,3,5,,3,2,5,,3,2,
5,6,7,,5,,3,,1,,3,,6,,8,,2,2,2,,1,4,4,4,74,,54,,74,,54,,
6,,6,6,,,7,7,8,8,2,,8,,2,,4,,2,,8,,2,2,4,,2,1,4,,2,1,
4,5,6,,4,,2,,8,,2,,5,,7,,1,1,1,,8,3,3,3,4,,5,,6,7,8,1,
8-5[8:1]/2,,2,2,8,,1,1,7-4[8:1],1,1,,7,,1,,
6-3[8:1],,8,,6,,8,8,5-2[8:1],,7h[16:1],,5,,7h[16:1],,
4-1[8:1]/6,,6,6,4,,5,5,3-8[8:1],5,5,,3,,5,,
2-7[8:1],,4,,2,,4,4,1-6[8:1]/3,,3,,13,,3,,
2-5[8:1]/8,,8,8,2,,1,1,3-6[8:1],1,1,,3,,1,,
4-7[8:1],,2,,4,,2,2,5-8[8:1],,3h[16:1],,5,,3h[16:1],,
6-1[8:1]/4,,4,4,6,,5,5,7-2[8:1],5,5,,7,,5,,
1,1,1,,1,3,3,3,4,,5/4b,,6/4b,7,8/4b,1,
3,2,3,,1,2,8,1,7,8,6,7,5,8,4,,
2,3,2,,4,3,5,4,6,5,7,5,8,6,1,,
3,2,3,,1,2,8,1,7,8,6,7,5,8,4,,
2,3,2,3,1,4,8,5,7h[64:1],6,5h[64:1],6,4h[64:1],6,3h[64:1],,
7,4,7,,5,6,4,5,3,4,2,3,1,4,8,,
6,8,6,,8,7,1,8,2,1,3,1,4,2,5,,
7,4,7,,5,6,4,5,3,4,2,3,1,4,8,,
6,7,6,7,5,8,4,1,3h[64:1],2,1h[64:1],2,8h[64:1],2,7h[64:1],,
{2}5h[8:1],{8}1,1,1,1,
{2}5h[8:1],{16}1,,1,1,1,,1,,
{8}5h[8:1],,,1,1,1,1,1,
{2}5h[8:1],{16}1,,1,1,1,,1,,
{2}2b/7b,{8}7,7,7,7b/2b,
{2}2b/7b,{16}2,,2,2,2,,7b/2b,,
{8}2b/7b,,,2,27,27,27,2b/7b,
{16}1,1,1,1,1,1,1,1,1,1,1,1,
{8}7,27,2b/7b,
{1},,,,,,
E
