&title=月に叢雲華に風(森羅万象Ver)
&artist=あやぽんず*/あよ
&first=0.81
&des=ホシノニャィン
&lv_5=13.6
&inote_5=(180)
{4},,,,
{1},,
{4},,5h[4:1],8h[4:1],
{4}7h[4:2],,2,2<4[8:6],
{16}6,,,6,,,6h[8:3],,,,,,,,,,
{16}4pp2[8:4],,,,,,,,8,,,7,,,6h[8:4],,
{16}1,,,2,,,3,,,,,,
{8}37,,1h[8:3]/5h[8:3],,,,,
{8}2h[8:1],6h[8:1],3h[8:1],7h[8:1],4h[8:1],8h[8:3],,,
{16}1h[8:2],,,,8,,
{1}8<4[8:5]*pp4[8:5],
{8}3,17,6,28,7,18,2,18,,,,,
{8}3,3,5pp1[8:5],,,,,,,,4,4v2[8:1],,7,7-3[8:1],1,
{8}1-5[8:1],,,8h[8:3],,,4h[8:4],,,,5-8[8:1],5,3,3,
{16}2,1,2,1,
{4}2h[8:4],,6h[8:7],,,,
{8}1,1-5[8:1],2,8,6,6-2[8:1],8,4,
{4}3h[8:2],7h[8:2],
{8}2-5[8:1],2,7-4[8:1],7,3,3h[8:1],
{16}2,1,8,7,
{2}6-1[8:1],2-5[8:1],8-5[8:1]/4-1[8:1],
{8},,2,5,3h[8:3],,6,8h[8:5],,,3>6[8:4],,3,,,,,
{8}7h[8:1]/5h[8:1],,68,1h[8:3]/7,,,6h[8:3],,,2,,2h[8:1]/6h[8:1],,4h[8:1]/8h[8:1],,1h[8:1]/5h[8:1],,3h[8:1]/7h[8:1],,
{16}37,,15,,48,,26,,7,8,1,,3,4,5,,8b,,,3b,,,5h[8:2],,,,
{16}6,7,8,1,2,3,
{8}45,6,45,3,47,
{16}6,5,6,,
{8}47,56,4,25,34,25,
{16}3,4,3,,
{8}25,6,7,8,2,3,4,
{4}6h[8:6]/1-5[8:1],1-6[8:1],1-3[8:1],1,
{8}45,56,7h[8:2]/8,
{16}8,1,2,,
{8}4h[8:1],8h[8:3],,,2h[8:2],,
{8}6,45,34,1h[8:2]/2,
{16}2,3,
{8}4,5h[8:1],
{16}8h[16:3],,,3h[16:3],,,8,,6,
{16}5,6,4,6,5,6,3,6,5,6,2,6,5,6,1,6h[8:2],
{16},5,,1b,,,,
{8}3h[8:5],,,7h[8:2],,,26,2h[8:3]/6h[8:3],,,,
{8}3v8[8:1]/7,,3,6,54,76,1-5[8:1]/8-4[8:1],,18,,,37,3h[8:3]/7h[8:3],,,,
{8}15,
{16}15,26,37,,
{8}8,2,5h[8:5],,,1h[8:2],,,48,4h[8:3]/8h[8:3],,,,
{8}2h[8:2],,6h[8:1],3h[8:1],7,
{16}86,,,24,,,15,,37,,,28,,,46,,
{16}3,4,3,5,3,6,3,7,
{16}3,8,3,1,3,1,3,1,3b,,,,,,,,
{4}1-5[8:1]/8-4[8:1],1-3[8:1]/8-6[8:1],18,,4h[8:2],6pp2[8:3],
{16}6,,,4,,,1h[8:3],,,,,,,,,,
{4}8-5[8:1]*-3[8:1],,
{16}4>1[8:1],,,5,,,6,,8<5[8:1],,,1,,,2,,,,,,
{4}3p7[8:1]/7p3[8:1],37,
{8},1/5<1[8:2],,4,3,2,38,47,56,,,
{8}2>6[8:2],,6<2[8:2],8,,,,7h[8:3],,,
{8}3,,15,37,1>3[8:1]/5<7[8:1],37,15,,,
{8}4>5[8:2],,,,1-5[8:1],,1,,
{16}3>7[16:3],,,7>4[16:3],,,4q4[16:5],,
{8}6,,8,,5<4[8:2],,,,
{16}8-4[8:1],,,8,,,6,,6<2[16:3],,,2<5[16:3],,,5p4[16:4],,,,,,
{8}1h[8:2],,6h[8:3],,,3h[8:2],,8,72,45,36,18,2h[8:2]/7h[8:2],,,3h[8:1],5h[8:1],4h[8:1],
{16}5,4,6,3,5,4,6,3,5,4,6,3,5,4,6,3,
{16}8,1,7,2,8,1,7,2,8,1,7,2,8,1,7,2,
{4}8b,,
{4}7,7>5[8:6],
{16}3,,,3,,,3h[8:3],,,,,,,,,,
{4}5qq7[8:4],,
{16}1,,,2,,,3h[8:4],,8,,,7,,,6,,,,,,
{8}26,,48,4h[8:1]/8h[8:1],,2h[8:1],1h[8:1],4h[8:2],,5h[8:2],,2,4h[8:3],,,8h[8:2],,1,
{4}1>5[16:63]*qq5[8:14],,,,,,,,,,,,,,,,
{16},,,1b,
E
