&title=El último baile
&artist=Θ
&first=0
&des=SeiKA
&lv_5=13+
&inote_5=(175)
{1},
{8},,,,5h[2:1],3,4,3,4,3,4/5pp4[2:1],3,2,3,2,3,
{16}1h[2:1],,3,,4,,3,,4,,3,,2-5[4:1]/4,,,1,2,,8,,7,,6,,
{8}4h[2:1],6,5,6,5,6,5/4qq5[2:1],6,7,6,7,6,
{16}8h[2:1],,6,,5,,6,,5,,6,,7-4[4:1]/5,,,8,7,,1,,2,,3,,
{8}5h,5h[8:1],B7/B8,5h,5h[8:1],B2/E3,5h,5h[8:1],A6/D7,5h,5h[8:1],A2/D2,
{8}4h,4h[8:1],B7/B8,4h,4h[8:1],B2/E3,4h,4h[8:1],A6/D7,4h,4h[8:1],A2/D2,
{8}6h,6h[8:1],8x-5[8:7]b,6h,6h[8:1],,6h,6h[8:1],,6h,6h[8:1],,
{8}3h,3h[8:1],1x-4[2:1]b,3h,3h[8:1],,3h,3h[8:1],,{24}5,6,7,8,1,2,3,4,5,
{4}6bpp4[2:1],5,4>7[2:1]b,3h[4:1],,{24}4,3,2,1,8,7,
{4}6bpp4[2:1],5,4V62[2:1]b,{8}3h[4:1],,,4,4h[4:1],,
{8}1<5[2:1],4,3,4,3,4,3>7[2:1],4,5,4,5,4,
{16}5,,,46,,,4/6-3[8:1],,2,,2,,1,,,28,,,28,,3,7,4,6,
{4}5bp4>7[4:5],,,C,,6,6z2[4:3]b,,,,,4,
{4}4q5<2[4:5],,,C,,3,3-8-5[2:1]b,,,{8}4h[4:1],,5,4,6V82[8:3],,
{8}2,,3h[8:1],,4b-2[8:1],,4/6-8[8:1],,6/5-1[8:1],,5/3V17[8:3],,
{8}7,,6h[8:1],,5b-7[8:1],,5/3-1[8:1],,3/4-8[8:1],,4/5,,
{8}1h/7<3[4:1],,7h,,1,1,2b-7[8:1]/8bh,,6b-3[8:1]/2bh,,6bh/4bhh[1:1],,
{8}2,2,2,2,2<5[2:1]b,2,2,,4,3,2,1,
{4}4qq6[2:1]b/8bh[2:1],,,8<4[3:1],5>1[3:1],2<4[2:1]*pp8[4:3]b,,,,5V71[8:3],{8}1,2,3,4,
{4}5pp3[2:1]b/2bh[2:1],,,1>5[3:1],4<8[3:1],7>2[4:1]*p5[2:1]b,,,{8}3<8[8:3],3,6h[2:1],,,,{16}1,2,3,4,
{4}5-2[8:1]/1-6[8:1],1>6[4:1],15,7p5[8:3],4-1[8:1],4,4-7[8:1]/8-3[8:1],8<3[4:1],84,2q4[8:3],5-8[8:1],5,
{16}5/7-4[8:1],,,8,7-2[8:1],,,,7<3[3:1],,,,4>8[3:1],,,,1<3[2:1],,,,4,,,,
{8}2,2,2,2,2w6[2:1]b,2,2b,,,,,,
{16}B6/4xh[2:3],B5,,,,,7x,,,,,,2x-5-8-3-6[4:3],,,,,,,,,,,,,,,,,,,,
{16}B3/5xh[4:3],B4,,,,,2x,,,,,,7x-4-1-6-3[4:3],,,,,,,,A5/D6,,,,,,A8/D8,,,,,,
{8}A3/2h[1:2],A4,A5,A6,,,C,,A4,,A5,,A6,,A7,,8h[8:3],,,6h[8:3],,,4h[4:1],,1-5[2:1],,,,1xh[4:1],,,,
{8}8h/4h,7,6,1h/5h,2,3,4h/8h,7,6/2,5h,4-8[8:1],,7-4[8:1],,7,,
{8}1h/5h,2,3,8h/4h,7,6,5h/1h,2,3/7,4h,5-1[8:1],,2-5[8:1],,2,,
{8}7-3[8:1],7,8-4[8:1],8,1-5[8:1],1,2-6[8:1],2,3-7[8:1],3,4-8[8:1],4,5-1[8:1],5,2,2,
{16}3,4,3,4,2,5,2,5,1,6,1,6,8,7,8,7,1b>8[2:1]b*<2[2:1]b,,,,,,,,,,,,,,,,
{8}1bx/Cf/B4/B5/B6,,,7bx/B3/B4/A3/A4/D4/E4f,,,2bx/B6/B5/A6/A5/D6/E6f,,,8bx/Cf/B5/B4/B3,,,4bx-8[8:1]b/7bx-5[8:1]b,,4bx/7bx,,
{8}2-6[8:1],,5V71[4:1],5,1<5[4:1],,3,,{16}4,3,2,1,84,7,6,5,48,37,26,15,4b<7[8:1]/8b>3[8:1],,,,
{8}4qq8[8:3]/8,,4/8,8,7-5[8:1]*-1[8:1],,7-3[8:1],,7,,{16}1,2,3,4,51,6,7,8,15,26,37,48,
{8}1b/5b,,,3b/7b,,1b/5b,{24}2,4,2,4V28[4:1],,,,,,4V68[4:1],,,,,,4,,,,,,{16}4,,6,5,6,5,
{8}7-4[8:1],8,7,2V86[4:1],,6V42[4:1],,1,,8qq4[8:3],1,8,,4,3,2,
{32}1bx/5bx,,,,,,,,8,17,26,35,4bx,,,,,,,,2,13,48,57,{8}6bxv5s1[8:6]b,,,4z8[8:3],,,,,,,
{8}2h[4:3],4,5,4,5,4,3q8[8:3],2,1,2,1,2,7h[4:3],5,4,5,4,,6>2[8:3],7,8,7,8,7,
{8}1V73[8:3],4,5,4,5,4,5V37[8:3],2,1,2,1,2,8V26[8:3],5,4,5,4,,4V62[8:3],7,8,7,8,7,
{16}6xh,B5,4xh,B5,6xh,B5,4xh,B5,7h[4:1],,,,2xh,B3,4xh,B3,2xh,B3,4xh,B3,1h[4:1],,,,7xh,B8,1xh,B8,7xh,B8,1xh,B8,6h[4:1],,,,8>1>2>3<4[2:1],,,,5h[4:1],,,,,,,,
{8}7h[2:1],A6,A5,A4,A3,,2h[2:1],E3,E4,E5,E6,,6h[2:1],B6,B5,B4,B3,,3h[2:1],,Ch[2:1],,,,5xv2[14.5833#384:1]b*v8[14.1892#1184:3],,,,,,,,,,,,,,,,,,,,,,,,
{12}A2,A8,
