&title=Don't Never Around
&artist=HAMA
&first=0.01
&des=Dolive
&lv_5=14
&inote_5=(175)
{4},,,,
{24}1b>8[2:3]/8b<1[2:3],27,36,{8}45,{4},,,
{1},1p8[2:1],4q5[2:1],
{8}5b/4b,,3,3,4h[4:1],2,2,4,35,,6,6,5h[4:1],7,7,5h[4:1],6pp5[2:1],6,,,5,,,{16}4,3,
{8}2b-6[8:1],,82,7b-3[8:1],,78,1b-5[8:1],,
18,,{16}7,7,{8}5,64,3,46,8,57,3,{16}4,4,{8}2,5>2[8:1]/6,7,8-4[8:1],,
81,,{16}2,2,{8}4,35,6,53,1,42,6,{16}5,5,{8}7,4<7[8:1]/3,2,1>4[8:1],,
{16}18,,,7,5<8[8:1],,6,,45,,,3,1,,2,,{8}17,6,28,3,45,6,45,3,
12,12,78,78,{16}6,6,5,5,4,4,3,3,1b,2b,1b,2b,1b,2b,1b,2b,{8}1b-5[8:1],8,1b/7,,
5/6h[4:1],,5h[4:1],7,7,{16}5,6,4,5,{8}3h[4:1],,4,25,{16}1,1,8,,7,6,54,,3,,
{8}1h[4:1]/2,,3h[4:1],4,4,{16}4,3,5,4,{8}6h[4:1],,5,47,47,8<5[8:1],1,2,,
4/3h[4:1],,4h[4:1],2,2,{16}4,3,5,4,{8}6h[4:1],,5,74,{16}8,8,1,,2,3,45,,6,,
{8}8h[4:1]/7,,7,7,{16}1-5[16:1],,,6-1[16:1],,,4h[4:1],,,,8-4[16:1],,,3-8[16:1],,,5<8[16:1],,,1-5[16:1],,,1,,
{4}8q1[2:1],8,1b,2h[4:1],{16}4,3,5,4,6,,5,5,7,8,7,8,6,6,5,,
{8}4h[4:1]/7h[4:1],,,4z8[4:1]/7,7-3[8:1],,,,1/4h[4:1],,3,8/5h[4:1],,6,7b/3b,,
{16}2h[8:1]/8h[8:1],,,2h[8:1]/8h[8:1],,,28,,{8}8-4[8:1]/1,7,6h[4:1]/8b,,,,54,{16}3,4,2,6,5,7,{4}1b,
{16}28,,3,,5,4,{8}6,73,2,15,6,8b/7b,{16}1,2,3,7,6,5,{8}4-8[8:1],,43,,
7h[8:1],1,{16}6,6,{8}2,{16}7<4[8:1],,,8,7,,1,,{8}3h[8:1],4,{16}2,2,{8}4,{16}5-1[8:1],4,6,,{8}5b/7,,
8h[8:1],2,{16}7,7,{8}3,{16}8<5[8:1],,,1,8,,2,,{8}3h[8:1],5,{16}4,4,{8}6,{16}5h[8:1]/7h[8:1],,,1h[8:1]/8h[8:1],,,34,,
{8}2h[8:1],8,{16}3,3,{8}7,{16}2>5[8:1],,,1,2,,8,,{8}6h[8:1],5,{16}7,7,{8}5,{16}4-8[8:1],5,3,,{8}4b/2,,
1h[8:1],7,{16}2,2,{8}6,{16}1>4[8:1],,,8,1,,7,,{1}6/5qq6[2:1],
{8}7h[8:5],,{16}5,,,5,,,5,,6,,{8}4h[8:5],,{16}5,,,5,,,5,,3,,4,,4,,
{8}2h[8:5],,{16}4,,,4,,,4,,3h[8:3],,5,6,7,8,1,2,3,4,{8}5q7[8:3],,1,2,3,
{4}4,48,{16}74,,,6,4,,6,,
{4}54,51,{16}25,,,3,5,,3,,
{4}45,46,{16}74,,,8,4,,8,7,
5b/6b,4,3,8,7,6,4b/5b,3,2,7,6,5,4b/3b,2,1,8,
6h[2:1],,,,5-3[8:1],,,,5,,,6,2,,5,,
3h[2:1],,,,4-6[8:1],,,,4,,,3,7,,4,,
7h[2:1],,,,5>2[8:1],,,,5,,,6,1,,5,5,
2h[2:1],,,,4<7[8:1],,,,4,,,3,8,,4,4,
7-1[8:1],,,,7-4[8:1],,,,7,,,3,4,,2,,
2-8[8:1],,,,2-5[8:1],,,,2,,,6,5,,7,,
8<5[8:1],,,,8>3[8:1],,,,8,,,5,4,,6,,
7/1,,8,8,8,8,8,8,8,8h[64:1],8,,6b/2b,,,,
3>8[8:1],,,4,3,,5,,6>3[8:1],,,7,6,,8,,1-5[8:1],,,2,1,,3,,4-8[8:1],,,5,4,,6,,
7<4[8:1],,,8,7,,1,,2<7[8:1],,,3,2,,4,,5-1[8:1],,,6,5,,7s3[32:7],,8-4[32:3],,,,,,,,
2h[16:3],,,4,2,,6,5,7h[16:3],,,5,7,,3,4,1h[16:3],,,4,2,,6,5,8h[16:3],,,5,7,,3,4,
2,1,3,8,4,7,5,6,4,5,3,4,2,5,1,6,8b,7b,8b,7b,8b,7b,8b,7b,{8}8b-4[8:1],1,8b/2,,
{16}3h[8:1],,4-8[8:1],3,,5,4,,6-1[8:1],,1-7[10:1],,6,,3,,
3h[8:1],,4,3,5-1[8:1],,6,,3-8[8:1]/5,,2,,34,,5,,
1h[8:1],,8>3[8:1],1,,7,8,,6h[8:1],,4,5,3-5[8:1],,7,,
3>8[8:1],,8,8,3,,6,6,1,,15,26,37,48,15,,
7b/3b,,,,2,4,3,5,4,6,5,7,8,6,1,4,3,7,5,6,3,4,2,2,6,5,7,4,5,3,1,,
2b/8h[8:3],,,,3,4,5h[4:1],,,,6,,56,,,,,,
3h[8:1]/4h[8:1],,,5h[8:1]/4h[8:1],,,2h[8:1]/4h[8:1],,,7h[8:1]/5h[8:1],,,
8h[8:1]/4h[8:1],,{24},,,84,37,26,{4}5b<8[8:1]/1b>4[8:1],1/5-1[8:1],5b,
{16}7h[8:1],,5,6,4-8[8:1],,3,,6-1[8:1]/4,,7,,65,,4,,
8h[8:1],,1<6[8:1],8,,2,1,,3h[8:1],,5,4,6-4[8:1],,2,,
6<1[8:1],,3,3,6,,4,4,8,,5,7,1,4,3,,
{1}2bpp5[32:20]/6b,7b<8[8:5]/4,
{8}7b/5b,6,4b/2b,3,{16}5b,1,6,2,7b,3,8,4,{4}1b>8[16:7],,1w5[8:1],1h,
{16}7b/3b,,,,1,8,2,7,5-1[8:1],6,4,8,5b,,,,
7,,18,,2,34,,6,57,,3<6[8:1],4,2,4,3,,
8b,,,,7,5,6,3,4,2,8,1,7b,,56,,2,4,3,3,7,5,6,6,1,4,2,7,5,8,3,6,1b-5[8:1],,
