&title=格局
&artist=不是唐嘉琦
&first=0.13
&des=心白-HW
&des_7=心白-HW
&lv_7=78
&inote_7=(130){4}B7h[2:1]/B2h[2:1],,,,{1}4h[2:1]/5h[2:1],
{2}E8h[4:1]/B7h[4:1]/B6h[4:1]/E6h[4:1],6-3[8:1],
{4}B1/7<3[8:1],2qq5[8:3]/7pp5[8:3],,,4b/3bqq6[2:1],
5,4,5,
{16}5/6pp3[2:1],6/5,6/5,6/5,{8}4,4,5,5,4,4,
{48}5,E5,B4,B3,,,,,,,,,{4}6/2,{8}5-8[8:1],5,4-1[8:1],4,
7-4[8:1],{16}8,8,{8}1-5[8:1],2,8-4[16:1],7,2q7[8:1],1,
{4}4h[4:1],1,1q5[8:1],{8}1/6,7,
A8/D8/B3h[8:3],,,Ch[8:1],{4}B7h[4:1],B6h[4:1],
,4v2[4:1]/5q1[4:1],{16},,,,,,,,B6,
B5,B6,B5,B6,B5,B6,B5,{2}8V64[8:1]*-5[8:1],
{4}3h[8:1]/4h[8:1],6h[8:1]/5h[8:1],3h[8:1]/4h[8:1],{16}B5/E5,B1/E1,E7/B7,E3/B3,
{8}1/2h[8:1],Cf,8/7h[8:1],Cf,{16}B1/E1,B5/E5,E3/B3,E7/B7,E4,E6,E2,E8,
{48}2h[8:1]/A1,E1,B8,B7,{12}E7,{48},,,,7h[8:1]/A8,E1,B1,B2,{6}E3,{48}2h[8:1]/A1,E1,B8,B7,{12}E7,{48},,,,{16}A6/B6/E7,B2/A2/E3,A8/B8/E1,A4/B4/E5,
{8}6h[16:1]/5h[16:1],B7f/C,3h[16:1]/4h[16:1],B2f/C,{16}B1/A1,B4/A4,D3/E3,E6/D6,B4/A4,A7/B7,E6/D6,E1/D1,
{1}C,
E
