&title=だれかの心臓になれたなら
&artist=ユリイ・カノン feat.GUMI
&first=0.05
&des=Kurage
&lv_5=13+
&inote_4=
&inote_5=(145){4},,,,,,,,
4b-1[4:1],,5b-8[4:1],,4bqq5[4:2],,7,7,
8b-4[4:1],,1b-3[16:3],,7b-5[16:3],,3,{8}3,3,
2-4[8:1]/4,,4,,5-1[8:1]/6,,6,,
2/4<7[8:1],,2,,8-3[8:1]*-5[8:1],,8,,
{16}2/6h[16:3],,,5,6,,3,,{8}2h[4:1]/8,,4pp4[8:4],4qq4[8:3],
,,,,{16},,3,4,2,5,4,6,
2-4[32:3],1,,1,2,,7,,6<1[8:1],5,,5,6,,3,,
3h[8:1],,6,5,7h[8:1],,2,8,1h[8:1],,4,3,5,,46,,
7-5[32:3],8,,8,7,,4,,3>8[8:1],4,,4,3,,6,,
6h[8:1],,3,4,2h[8:1],,7,1,8h[8:1],,2,6,4,,37,,
2>5[8:1],1,,1,2,,6,,7p3[8:1],8,,8,7,,1,,
1h[8:1],,8,2,7h[8:1],,5,6,3h[8:1],,4,2,5,,46,,
7<4[8:1],8,,8,7,,3,,2q6[8:1],1,,1,2,,8,,
8h[8:1],,1,7,2h[8:1],,4,3,6h[8:1],,2,8,4,,26,,
{8}5-8[8:1]/4,,4,,1-4[8:1]/3,,3,,
2pp4[32:5],,6pp8[32:5],,3h[4:1],,7,,
6/5-2[8:1],,6,,3v6[8:1]/7,,7,,
8p4[16:3],,4p8[16:3],,2h[4:1],,,7,
1/7-5[32:3],,4-2[32:3],4,6-3[8:1],,1s5[8:3],,
5,,6,,7-1[32:3]/3-5[32:3],,,,
4-1[8:1],4,8-5[8:1],8,2h[4:1],,6>3[16:3],,
3pp6[8:3],,2,,2-7[8:1],,27,,
6,5,4/6h[8:1],3,26,{16}2,4,3h[8:1],,2,,
{8}1-7[32:3],8,3-5[32:3],4,6,6,57,,
1,4,5/3h[8:1],6,73,{16}7,5,6h[8:1],,7,,
{8}8-4[8:1],1,7-5[32:3],6,3,3,45,6,
7/3<6[8:1],7,7,7,5-1[8:1]/8-4[8:1],,58,,
3/4-8[8:1],4,1,1,2v4[32:5]/6<2[32:5],,,,
3-5[32:3]/5,2,6-1[8:1],7,{16}4,4,,3,7h[8:1],,1,8,
{8}37,65,54,43,{16}2-6[8:1],6,4,8,{4}2b,
{16}4/5p1[32:3],,,5pp4[4:1],,,5,,3,,{8}2-6[8:1],,4,
4pp6[8:1],,3/4qq2[8:1],,54,,3h[8:1]/6h[8:1],,
{16}5/4q8[32:3]*q8[32:3],,,4qq5[4:1]*qq5[4:1],,,4,,6,,{8}7-3[8:1],,5,
5qq3[8:1],,6/5pp7[8:1],,45,,6h[8:1]/3h[8:1],,
{16}4>1[32:3]*>1[32:3]`5<8[32:3],,,4qq5[4:1]*qq5[4:1]`5pp4[4:1],{8},,,,,68,
6h[4:1]/8p3[32:5],,,,1b/2b,,45,45,
{16}36,,2,4,,7,5,,{8}4-1[8:1]/5-8[8:1],36,,,
{16}3b,3,4,2,7b,7,5,6,{4}1b,,
{16}5/4<7[8:1],,3,4,1-6[8:1]*-4[8:1],,2,,{8}1,,5/7-3[8:1],2,
7V58[32:7]/3,{16}1,1,{8}7,3,3>8[8:1],4,31,7,
{16}6/5<8[8:1],,4,5,2-7[8:1]*-5[8:1],,3,,{8}2,,6/4q8[32:5],5,
4qq5[32:9]/3,{16}2,,64,,7,,8-4[8:1],,7,3,{8}8,2,
{16}3/5>2[8:1],,6,5,8-3[8:1]*-5[8:1],,7,,{8}8,,4/2-6[8:1],7,
2V41[32:7]/6,{16}8,8,{8}2,6,6<1[8:1],5,68,2,
{16}3/4>1[8:1],,5,4,7-2[8:1]*-4[8:1],,6,,{8}7,,34,5,
{32}26,3,4qq4[4:1],5,6,7,8,1,26,5,4pp4[4:1],3,2,1,8,7,{4}6b,{16}8h[256:1],7h[256:1],6h[256:1],5h[256:1],
4,4,4,4,{8}4bqq3[32:5]*pp5[32:5],35,4,,26,{16}7,,
8/1-3[32:3],,7-5[32:3],1,{8}8-4[8:1],7,8,,5pp5[4:1],4,
5qq5[4:1]/3,,1<6[8:1],8,1>4[8:1],,5p1[8:1]/1,6,
7/5pp4[32:9],6,53,2,1-5[8:1],{16}2,6,1,,7,,
{16}6/4<7[8:1],,3,4,1p5[8:1]*pp3[8:1],,2,,{8}1,,2-6[8:1]/4,1,
2V41[32:7]/6,{16}8,8,{8}2,6,6<1[8:1],5,68,2,
3>7[8:1]/5,{16}4,3,{8}5v3[8:1]*v7[8:1],6,5,,4/6>3[8:1],7,
2qq5[16:5]/6pp4[16:5],1,,,,,{16}7-3[8:1],3,5,1,
{16}7b,,,2,4<7[8:1],,{24}1,2,3,{8}47,,8/1<6[8:1],3,
1/4-8[8:1],{16}2,2,{8}4<2[4:1],3,7,{16},4,{8}4-1[8:1],35,
4b/6b,{16},7,5>2[8:1],,{24}8,7,6,{8}52,,1/8>3[8:1],6,
8/5-1[8:1],{16}7,7,{8}5>7[4:1],6,2,{16},5,{8}5-8[8:1],64,
{16}3b/5b,,,2,4<7[8:1],,{24}1,2,3,{8}47,,8/1-5[8:1],3,
1/4-7[8:1],{16}2,2,{8}4<2[4:1],3,8,{16},4,{8}4-1[8:1],35,
4b/6b,{16},7,5>2[8:1],,{24}8,7,6,{8}52,,18,2,
{32}7b/3b,6,5pp5[4:1],4,3,2,1,8,7b/3b,4,5qq5[4:1],6,7,8,1,2,{4}3b,{16}1h[256:1],2h[256:1],3h[256:1],4h[256:1],
5,5,5,5,{8}5bqq4[32:5]*pp6[32:5],46,5,,3>8[8:1]/7,2,
3/1-5[8:1],7,5>2[8:1]*<8[8:1]/1,6,5w1[8:1],,5,,
{16}3b/7h[16:3],,,5,7,,45,,3h[16:3]/6,,,4,3,,21,,
78,,6,5,6,,34,,{4}1>4[8:1]/5<8[8:1],15,
{8}2b-6[8:1]/6b,{16},4,4qq3[32:5]*pp5[32:5],,5,,4,,,,{8}6<1[8:1]/2,7,
6/8-4[8:1],2,4<7[8:1]*>1[8:1]/8,3,4w8[8:1],,4,,
{16}6b/2h[16:3],,,4,2,,54,,6h[16:3]/3,,,5,6,,78,,
{4}2-5[8:1]/6-1[8:1],2<7[8:1]/6>3[8:1],26,{16}15,,2,4,
3b,,,,5,4,6,5,7,,3,,24,,6,,5/7-3[8:1],,,,78,,2,2,4-1[8:1]*-7[8:1],,,,4,,,,
6b,,,,4,5,3,4,2,6,2,8,1,7,8,7,1,,2,4,3,6,5,7,1w5[8:1],,,,1,,,,
3b/7b,,6,5,7,,3,5,1,8,2,6,5,,3,4,2,,6,4,8,,2,4,1,8,2,7,5,6,4,5,
3b,,6,5,7,,81,,27,,3,4,2,,7,5,8,4,6,2,5qq5[32:7]*pp5[32:7],1,7,3,5b,
