&title=The Hold
&artist=r-906
&first=0.5999999
&des=65536BN
&des_5=65536BN
&lv_5=14
&inote_5=(87){16}3h[16:3],,,8h[16:3],,,{8}3h[16:3],{16},7h[16:3],,,3h[16:3],,,6h[16:3],
,,{8}3h[16:3],{16},5h[16:3],,,3h[16:3],,,7h[16:3],,,{8}8h[8:3],
{16},,,,2h[16:3],,,8h[16:3],,,{8}1h[16:3],{16},8h[16:3],,,4h[16:3],
,,8h[16:3],,,{8}2h[16:3],{16},7h[8:3],,,,,,2,
{8}3/5h[8:1],{16}3,6h[8:1],,,{8}2/5h[8:1],{16},7h[8:1],{8}3,5h[8:1],{16}2,8h[8:1],
,,{8}3/5h[8:1],{16},7h[8:1],{8}2,5h[8:1],{16}3,6h[8:1],,2,{8}2/5h[8:3],
,3,2h[8:1],{16}6,3h[8:1],,,{8}7/1h[8:1],{16},3h[8:1],{8}6,
4h[8:1],{16}7,3h[8:1],,,{8}6/2h[16:9],,7,{16},6,{8}6,
{16}2b/7b,E6,2,E8,2,E6,2,E8,7,E4,7,E2,7,E4,7,E2,
2,E6,2,E8,2,E6,2,E8,7,E4,7,E2,7,E4,{8}3b/6b,
{16}2b/7b,E6,3,E8,3,E6,3,E8,6,E4,6,E2,6,E4,6,E2,
3,E6,3,E8,3,E6,3,E8,6,E4,6,E2,6,E4,{8}2b/7b,
3b/6b,{16}2,6,{8}3/7,{16}2,5,3,5,2,6,{8}3/7,2,
3/6,{16}7,3,{8}2/6,{16}7,4,6,4,7,2,{8}3/6,3/6,
{16}7/2,4,5,3,6,2,7,1,8,2,7,3,6,4,5,4,
{4}E8/E2,E6/E4,{8}E8/E2,E7/E3,E6/E4,4b/5b,
{16}7b/2h[8:1],,,6/2,7/3,,,7/1,2,7/3,,3/6,{8}2/7,6/3,
{16}6/3h[8:1],,,6/3,7/1,3,2,7/1,2,7/2V41[0.1724##0.3448],,7,{8}6,4b/5b,
{16}2b/7h[8:1],,,3/7,2/6,,,2/8,7,2/6,,6/3,{8}7/2,6/3,
{16}3/6h[8:1],,,3/6,2/8,6,7,2/8,7,2/7V58[0.1724##0.3448],,2,{8}3,5b/4b,
7b/2h[8:1],{16}6,2,{8}3/7,{16}6,1,2/7,3,6,3,{8}2/7,6,
7/3h[8:1],{16}6,3,1/7,3,2/6,1,2/7,2V41[0.1724##0.3448],{8}6,7,4b/5b,
2b/7h[8:1],{16}3,7,{8}6/2,{16}3,8,7/2,6,3,6,{8}7/2,3,
{16}2/6h[8:1],,,6/3,8/1,6,7,8/2,7,2/7V58[0.1724##0.3448],,3,{8}2,5b/4b,
7b/2h[8:1],{16}6,2,{8}3/7,{16}6,1,2/7,3,6,3,{8}2/7,6,
7/3h[8:1],{16}6,3,1/7,3,2/6,1,2/7,2V41[0.1724##0.3448],{8}6,7,4b/5b,
2b/7h[8:1],{16}3,7,{8}6/2,{16}3,8,7/2,6,3,6,{8}7/2,3,
2/6h[8:1],{16}3,6,8/2,6,7/3,8,7/2,7V58[0.1724##0.3448],{8}3,2,5b/4b,
7b/2h[8:1],{16}6,2,{8}3/7,{16}6,1,2/7,3,6,3,{8}2/7,6,
7/3h[8:1],{16}6,3,1/7,3,2/6,1,2/7,2V41[0.1724##0.3448],{8}6,7,4b/5b,
2b/7h[8:1],{16}3,7,{8}6/2,{16}3,8,7/2,6,3,6,{8}7/2,{16}2/7,3/6,
,2/7,{8}3/6,{16}2/7,3/6,,2/7,{8}3/6,{16}2/7,3/6,,7b/2b,{8}6b/3b,
7/3,{16}6,2,{8}7/1,{16}6,4,7,4,6,2,{8}7/1,6/Cf,
2/6,{16}3,7,{8}2/8,{16}3,5,2,5,3,8,{8}2/7,3/8,
7/3,{16}6,2,{8}7/1,{16}6,4,7,4,6,1,{8}7/2,6/1,
2/6,{16}3,7,{8}2/8,{16}3,5,2,5,3,8,{8}2/7,8,
2b/7b,{16}4/5,2/7,,2/7,{8}4/5,{16}7/2,5/4,,3/6,{8}1/8,Cf,
7/3,{16}6,2,{8}7/1,{16}6,4,7,4,6,1,{8}7/2,6/1,
2/6,{16}3,7,{8}2/8,{16}3,5,2,5,3,8,{8}2/7,8/3,
{16}7b/3,,,2,7b/1,,,4,7b,4,7b,1,{8}7b/2,1-4[0.3448##0.1724]/8-5[0.3448##0.1724],
{16},,4h[32:1],5h[32:1],4h[32:1],5h[32:1],3h[32:1],6h[32:1],3h[32:1],7h[32:1],2h[32:1],7h[32:1],3h[32:1],6h[32:1],3h[32:1],8h[32:1],
1h[32:1],8h[32:1],3h[32:1],6h[32:1],3h[32:1],5h[32:1],4h[32:1],5h[32:1],3h[32:1],6h[32:1],3,6,{32},,4/5,2/7,{8}1-4[0.3448##0.1724]/8-5[0.3448##0.1724],
{16},,3h[32:1],6h[32:1],3h[32:1],6h[32:1],3h[32:1],6h[32:1],3h[32:1],6h[32:1],3h[32:1],7h[32:1],2h[32:1],6h[32:1],3h[32:1],6h[32:1],
1h[32:1],8h[32:1],3h[32:1],6h[32:1],3h[32:1],6h[32:1],3h[32:1],6h[32:1],3h[32:1],6h[32:1],3h[32:1],6h[32:1],3h[32:1],6h[32:1],{8}1-4[0.3448##0.1724]/8-5[0.3448##0.1724],
{16},,2h[32:1],7h[32:1],2h[32:1],7h[32:1],4h[32:1],5h[32:1],4h[32:1],6h[32:1],3h[32:1],6h[32:1],4h[32:1],5h[32:1],4h[32:1],5h[32:1],
1h[32:1],8h[32:1],1h[32:1],5h[32:1],4h[32:1],6h[32:1],3h[32:1],6h[32:1],4/5,4/5,4/5,4/5,3-7[0.2586##0.1724],,,1-4[0.1724##0.1724]/8-5[0.1724##0.1724],
,,2h[32:1],7h[32:1],2h[32:1],6h[32:1],3h[32:1],7h[32:1],2h[32:1],7h[32:1],1h[32:1],8h[32:1],1h[32:1],7h[32:1],2h[32:1],7h[32:1],
4h[32:1],5h[32:1],4h[32:1],7h[32:1],2h[32:1],7h[32:1],2h[32:1],7h[32:1],{8}1/8,3/6,1/8,3/6,
{16}3h[16:3],,,8h[16:3],,,{8}3h[16:3],{16},7h[16:3],,,3h[16:3],,,6h[16:3],
,,{8}3h[16:3],{16},5h[16:3],,,3h[16:3],,,7h[16:3],,,{8}8h[8:3],
{16},,,,2h[16:3],,,8h[16:3],,,{8}1h[16:3],{16},8h[16:3],,,4h[16:3],
,,8h[16:3],,,{8}2h[16:3],{16},7h[8:3],,,,,{8}1>4[0.3448##0.6897],
{16}5h[8:1],,,6h[8:1],,,{8}5h[8:1]/1v3[0.3448##0.6897],{16},7h[8:1],,,{8}5h[8:1],{16}1-4[0.3448##2.7586],8h[8:1],
,,{8}5h[8:1],{16},7h[8:1],,,5h[8:1],,,6h[8:1],,,{8}5h[8:1],
,8-5[0.3448##2.069],{16}2h[8:1],,,3h[8:1],,,{8}1h[8:1],{16},3h[8:1],,,4h[8:1],
,,3h[8:1],,,{8}2h[16:9]/7h[16:9],{16},,,,,,,,7b/2h[8:1],
,,6/2,7/3,,,7/1,2,7/3,,3/6,{8}2/7,6/3,
{16}6/3h[8:1],,,6/3,7/1,3,2,7/1,2,7/2V41[0.1724##0.3448],,7,{8}6,4b/5b,
{16}2b/7h[8:1],,,3/7,2/6,,,2/8,7,2/6,,6/3,{8}7/2,3/6,
{16}3/6h[8:1],,,3/6,2/8,6,7,2/8,7,2/7V58[0.1724##0.3448],,2,{8}3,5b/4b,
7b/2h[8:1],{16}6,2,{8}3/7,{16}6,1,2/7,3,6,3,{8}2/7,6,
7/3h[8:1],{16}6,3,1/7,3,2/6,1,2/7,2V41[0.1724##0.3448],{8}6,7,4b/5b,
2b/7h[8:1],{16}3,7,{8}6/2,{16}3,8,7/2,6,3,6,{8}7/2,3,
{16}2/6h[8:1],,,6/3,8/1,6,7,8/2,7,2/7V58[0.1724##0.3448],,3,{8}2,5/4,
{16}4h[32:1],5h[32:1],4h[32:1],6h[32:1],3h[32:1],6h[32:1],4h[32:1],5h[32:1],4h[32:1],7h[32:1],2h[32:1],7h[32:1],4h[32:1],5h[32:1],4h[32:1],8h[32:1],
1h[32:1],8h[32:1],4h[32:1],5h[32:1],4h[32:1],6h[32:1],3h[32:1],6h[32:1],4h[32:1],5h[32:1],{8}4h[32:1],{4}1-4[0.3448##0.1724]/8-5[0.3448##0.1724],
{16}6b/3h[32:1],6h[32:1],3h[32:1],6h[32:1],3h[32:1],6h[32:1],3h[32:1],6h[32:1],3h[32:1],7h[32:1],2h[32:1],6h[32:1],3h[32:1],6h[32:1],1h[32:1],8h[32:1],
3h[32:1],6h[32:1],3h[32:1],6h[32:1],3h[32:1],6h[32:1],3h[32:1],6h[32:1],3h[32:1],6h[32:1],3h[32:1],6h[32:1],{4}1-4[0.3448##0.1724]/8-5[0.3448##0.1724],
{16}7b/2h[8:1],,,6/2,7/3,,,7/1,2,7/3,,3/6,{8}2/7,3/6,
{16}6/3h[8:1],,,6/3,7/1,3,2,7/1,2,7/2V41[0.1724##0.3448],,7,{8}6,4b/5b,
{16}2b/7h[8:1],,,3/7,2/6,,,2/8,7,2/6,,6,{8}2/7,{16}3/6,7/2,
,6/3,{8}7/2,{16}3/6,7/2,,3/6,{8}7/2,{16}3/6,7/2,,3b/6b,{8}7b/2b,
2b/7b,{16}5,3,{8}2/7,{16}5,2,7,2,5,3,{4}2/8-5[0.3448##0.1724],
{8}3/7,{16}5,3,{8}2/7,{16}5,2,7,2,5,2,{8}3/7,4b/5b,
7b/2b,{16}4,6,{8}7/2,{16}4,7,2,7,4,6,{8}7/2,4,
6/2,{16}4,6,{8}7/2,{16}4,7,2,7,4,7,{8}6/2,5b/4b,
2b/7b,{16}4/5,2/7,,4/5,{8}7/2,{16}4/5,2/7,,4/5,{4}7/1-4[0.3448##0.1724],
{8}7b/2b,{16}4,6,{8}7/2,{16}4,7,2,7,4,6,{8}2/5-8[0.3448##0.3448],4,
2,{16}4,6,{8}7/2,{16}4,7,2,7,4,7,{8}6/2,5b/4b,
{4}2b/7b,7b/2b,{8}2b/7b,{16}3/6,2b/7b,,3/6,{8}2b/7b,
Cf,1-4[0.3448##2.7586]/8-5[0.3448##2.7586],
E
