&title=Eviternity
&artist=Xyris
&first=0.37
&des=huh
&lv_5=14+
&inote_5=(250)
{1},,,,8>8-2-4-6-8[4:16],,,,
{1}8>8[4:16]*-2-4-6-8[4:16],,,,
{1}8-2-4-6-8>8b[4:30],,,,
{1}2-6>4-8[4:14],,,,
{4}Ch[8:9],{8},E2,,,E8,,
{8},E4,,,E6,,C,,
{8}5<8[4:4]/1,,,2,,,3,,
{8},4,,5,1,5,1,4,
{8}8>3[4:4],,,5,,,6,,
{8},7,,,Ch[4:4],,E8,,
{8}E2,,,E6,,,E4,,
{8},5,2,5,2,6,1,6,
{8}1-5[4:4],,,8h[16:1],{4},3h[16:1],
{8},6h[16:1],,,8-4b[4:4],,8,,
{8}1h[16:1],,,6h[16:1],,3h[16:1],{16}2x,1,8,7,
{24}6,4b,3,2,1,8,7-3[4:1],6,5,4,3,2,{16}A7/1,B7,C,B3,{4}A3f,
{1}2xpp7[4:5]/4xqq7[4:5],
{1},
{16}8,7,{8}8,{16}8,7,{8}8,8h[8:1],6,8h[8:1],6,
{16}1,7,1,7,{8}1h[8:1],{16}6,8,6,8,{8}6h[8:1],{8}8,6,
{1}7xpp1pp3[4:5]*qq5qq3[4:5],
{1},
{16}4,3,{8}4,{16}4,3,{8}4,4h[8:1],2,4h[8:1],2,
{16}5,3,5,3,{8}5h[8:1],{16}2,4,2,4,{8}2h[8:1],{8}4,2,
{1}3-7-5[4:5]*-1-5[4:5],
{1},
{16}A6,E7,{8}E8,{16}A4,E4,{8}E3,6h[8:1]/C,,4h[8:1]/C,,
{16}A6,B6,C,B2,{8}A2,{16}A4,B4,C,B8,{8}A8,{8}5h[8:1],,
{1}5-2-4-1[4:5]*-8-6-1[4:5],
{1},
{16}A2,E3,{8}E4,{16}A8,E8,{8}E7,2h[8:1]/C,,8h[8:1]/C,,
{16}A2,B2,C,B6,{8}A6,{16}A8,B8,C,B4,{8}A4,{8}1,,
{16}1h[8:1]/2,3,4,5,{8},{16}1-5[8:1]/8,7,6,5,{8},{4},
{16}8h[8:1]/7,6,5,4,{8},{16}8-4[8:1]/1,2,3,4,{8},{4},
{16}1h[4:1]/2,3,4,5h[4:1],{8},{16}1,8,7,6/5h[8:1],{8},{4},
{16}8h[4:1]/7,6,5,4h[4:1],{8},{16}8,1,2,3/4h[8:1],{8},{4},
{6}5bh[6:2],3,3,5bh[6:2],7,7,
{6}5bh[6:2],2,2,5bh[6:2],8,8,
{16}5b,1,5,1,6b,2,6,2,7b,3,7,3,8b,4,8,4,
{32}1b,E2,E3,E4,E5,E6,E7,E8,E1,E2,E3,E4,E5,E6,E7,E8,E1,E2,E3,E4,E5,E6,E7,E8,E1,E2,E3,E4,E5,E6,E7,E8,
{4}E1/3bhx[8:1],3h[8:1],3h[8:1]/1,3h[8:1]/1,
{4}3h[8:1]/7,3h[8:1]/7,3h[8:1]/5,3h[8:1]/5,
{4}3h[8:3]/4-8[4:1],4,3h[8:1],3h[8:1]/7,
3h[8:1]/1,3h[8:1]/5,3h[8:1]/2,3h[8:1]/8,
{4}3>6[4:2],,{16}6<3b[4:2],5,4,,{4},
{16}3>6[4:2],4,5,,{4},6>2[4:2],,
{16}2>7b[4:2],1,8,,{4},{16}7<2[4:2],8,1,,{4},
{16}2>7b[4:2],1,8,,{4},{16}7,8,1,,{4},
{8}8,8,6,6,4h[16:1],4h[16:1],2h[16:1],2h[16:1],
{8}3h[16:1],3h[16:1],5h[16:1],5h[16:1],7h[16:1],7h[16:1],1h[16:1],1h[16:1],
{8}8h[16:1]/2h[16:1],8h[16:1]/2h[16:1],8h[8:1]/2h[8:1],,3h[16:1],3h[16:1],7h[16:1],7h[16:1],
{8}2h[16:1],2h[16:1],5h[16:1],5h[16:1],1h[16:1],1h[16:1],4h[16:1],4h[16:1],
{4}8>4[4:2],,{16}4>8b[4:2],5,6,,{4},
{16}8>4[4:2],7,6,,{4},{8}6hx[16:1],6hx[16:1],6x<2[4:2],,
{8}2hx[16:1],2hx[16:1],2x>6[4:2],,{4}C,,
{6}1,1,1/7b,1,1,1/3b,
{8}2-4[8:1],2,5-1[8:1],5,3x,3h[8:1],{16}8x,7,6,5,
{8}8b-2[8:1],8,4-6[8:1],4,3-7[8:1],3,{16}A6,D6,A5,D5,
{8}1x>4[8:1],1,5<8[8:1],5,C,,{16}2,8x,2,8x,
{8}2-4[8:1],2,8-6[8:1],8,1,,{16}1bh[16:1],,1h[16:1],,
{8}3-1[8:1],3,4-8[8:1],4,5h[8:1],,{16}6x,7,8,1x,
{8}5b-7[8:1],5,1v3[8:1],1,8-4[8:1],8,{16}A3,D3,A2,D2,
{8}5x<8[8:1],5,1>4[8:1],1,C,,{16}7,1x,7,1x,
{8}7-5[8:1],7,1-3[8:1],1,4h[8:1],,{16}4b,4,4,4,
{8}4,3,6,6h[8:1],2,2h[8:1],{16}7,1,7,1,
{8}7-4[8:1],1-4[8:1],7h[32:1],1h[32:1],C,,{16}2,8,2,8,
{8}2-5[8:1],8-5[8:1],2h[32:1],8h[32:1],C,,{16}3,7,3,7,
{8}3-8[8:1],7-4[8:1],3h[32:1],7h[32:1],C,,{16}8b,8,8,8,
{8}8,7,6,6h[8:1],2,2h[8:1],{16}5,3,5,3,
{8}5,4-2[8:1],6-8[8:1],4,6,,E1/B1/E2,E6/E5/B5,
{16}3b,4,3,4,2,5,2,5,1,6,1,6,8,7,8,7,
{6}8b,8,8,8b/6,8,8,
{1}8b-2[4:11]*v6-4[4:11],
{1},
{1},
{1},
{1},
{4}4h[4:1]/2h[4:1],,5h[4:1]/3h[4:1],,
{2}6h[4:1]/4h[4:1],7h[4:1]/5h[4:1],
{4}6h[4:2]/8,8,1-5[8:1],1/B1/C/B5,
{4}6xpp8[4:1],,2xpp4[4:1],,
{4}Ch[4:1],4-7<6[4:1]*-1>2[4:1],{32}E4/E5,B3/B5,B2/B6,E7/E2,{8},{4},
{4}8-6-2-4[8:5],,1-5b[8:1],,
{4}Ch[4:1],{32}E1,B1/B8,B2/B7,E3/E7,B6/B3,B4/B5,E5,,{4},,
{4}5-7-1[4:1],,4-2-8[4:1],,
{64}A6,D7,A7,D8,A8,D1,A1/2x>6[8:3],,{8},,{32}E2,,E3,,E4,,E5,,{8}E6,{4},
{4}7-3[8:5],,1s5b[8:1],,
{16}D6,A6,D7,A7,{4}2h[8:1],{8}8h[8:1],1,7,,
{4}3xqq1[4:1],,7xqq5[4:1],,
{4}Ch[4:1],5-2>3[4:1]*-8<7[4:1],{32}E6/E5,B6/B4,B7/B3,E3/E8,{8},{4},
{4}1-3-7-5[8:5],,8-4b[8:1],,
{4}Ch[4:1],{32}E5,B4/B5,B3/B6,E3/E7,B7/B2,B1/B8,E1,,{4},,
{4}4-2-8[4:1],,5-7-1[4:1],,
{64}A3,D3,A2,D2,A1,D1,A8/7x<3[8:3],,{8},,{32}E8,,E7,,E6,,E5,,{8}E4,{4},
{8}1,1,4,4,7-3[8:1],,7h[16:1],A3,
{8}1,1,5,5,2-6[8:1],,2h[16:1],,
{1}7>8-2>3-5<6-8>1-3<4-6<7-1>2-4<5-7[4:29],,,,,,,,
{1}2-5-8-3-6[4:23]*-7-4-1-6b[4:23]/Cf,,,,,,
{4},,{16}5,7,5,7,4,8,4,8,
{16}3,1,3,1,2,2,2,2,{32}2b,3x/1x,8x/4x,7x/5x,{8}A6f,,,
{1}2-8-3-7[4:5]*-4-1-5[4:5],
{1},
{16}8,6,{8}8,{16}7,1,{8}7,8h[8:1],5,1h[8:1],6,
{16}2,7,2,7,{8}2h[8:1],{16}6,1,6,1,{8}6h[8:1],{8}8,7,
{1}8-5-1-4[4:5]*-3-7-4[4:5],
{1},
{16}4,2,{8}4,{16}3,5,{8}3,4h[8:1],1,5h[8:1],2,
{16}6,3,6,3,{8}6h[8:1],{16}2,5,2,5,{8}2h[8:1],{8}4,3,
{1}4-7-5-1[4:5]*-1-3-7[4:5],
{1},
{16}8h[8:1]/B7,B6,{8}E6,{16}8h[8:1]/B1,B2,{8}E3,C/A7/A6/E7,,C/A2/A3/E3,,
{16}8h[8:1]/A4,E4,E3,A2,{8},{16}1h[8:1]/A8,E8,E7,A6,{8},{8}Ch[8:1],,
{1}5-8-4[4:5]*-2-6[4:5],
{1},
{16}4h[8:1]/B5,B6,{8}E7,{16}4h[8:1]/B3,B2,{8}E2,C/B6/B7/E7,,C/B2/B3/E3,,
{16}A8,E8,E7,A6,{8},{16}A4,E4,E3,A2,{8},{8}1,,
{16}1h[8:1]/7,6,5,4,{8},{16}1-5[8:1]/6,5,4,3,{8},{4},
{16}8h[8:1]/2,3,4,5,{8},{16}8-4[8:1]/3,4,5,6,{8},{4},
{16}1/2,3,4,5h[4:1],{8},{16}2,3,4,5,{8},{4},
{16}8/7,6,5,4h[4:1],{8},{16}7,6,5,4,{8},{4},
{6}8bh[6:2],2,2,8bh[6:2],6,6,
{6}8bh[6:2],3,3,8bh[6:2],5,5,
{16}4b,8,4,8,3b,7,3,7,2b,6,2,6,1b,5,
(125)
{32}1-4[32:3],5-8b[32:2],Ch[32:4],,,,,,{4},
(250)
{8},8-2[8:1],4,8-6[8:1],4,8>2[8:1],4,8<6[8:1],4,
{8}4x-2[8:1],4x-6[8:1],4x-1[8:1],4x-7[8:1],4b,,,
{8},5<8[4:1],1,2,3,4>1[4:1],1,8,7,
{8}6-4-2[4:1],,2x-8-6[4:1],8x-6-4[4:1],6x-4-2[4:1],,,,
{8}1,1,3x,3x,7,7,5,
{8}7,1-3[8:1],1,5-7[8:1],5,1-5[8:1],{4},
{8},8<5[8:1],3,2,1>4[8:1],4,5,6,
{8}7-4[8:1],3-8b[8:1],7-2[8:1],3-6b[8:1],7,3,A6/A7/E7,A3/A2/E3,
{8}5-3[8:1],1,5-7[8:1],1,5>3[8:1],1,5<7[8:1],1,
{8}1x-3[8:1],1x-7[8:1],1x-4[8:1],1x-6[8:1],1x-5[8:1],1b,,,
{8},8h[4:1],4,3,2,1h[4:1],4,5,
{8}6-8-2[4:1],,2x-4-6[4:1],4x-6-8[4:1],6x-8-2[4:1],,,,
{8},4,4h[8:1],8,8h[8:1],2,2h[8:1],6,
{8}6-2[8:1],1-5[8:1],6-3[8:1],1-4[8:1],6x,1x,Ch[8:1],,
{8},1-5[4:1],5,6,7,84,3,2,
{6}1,8b/C,2b/C,3b/5b,1b/C,7b/C,
{8}6bh[8:1],{16}1,2,{8}6h[8:1],{16}2,3,{8}6h[8:1],{16}3,4,{8}5/6h[8:1],,
{16}4,7,4,7,{24}4,3,2,1h[8:1],,,7,6,5,4,3,2,1,8,7,{8}6h[8:1]/2,
{8},2h[8:1]/C,,8h[8:1]/C,,4h[8:1]/6,6,5,
{8}5,4x-7[8:1],4x-1[8:1],4x,4x,{8},,{16}8b,8b,
{16}8b,8b,8bh[8:1],,5,4,{8}8h[8:1],{16}4,3,{8}8h[8:1],{16}3,2,{8}8h[8:1],
{16}1b,7,1,7,{24}1x,8x,7x,6xh[8:1],,,1b,8,7,6,5,4,3,2,1,{8}4h[4:1]/8,
{8},8h[8:1],E4,2h[8:1],E6,4h[8:1],E8,6h[8:1],
{16}2,6,2,6,1,5,1,5,{8}8h[4:1],4,3,{16}2b,1,
{16}2,1,2b,3,4,5,3b/6,4,5,6,7/4b,5,6,7,8/5b,,
{8}1x-4[8:1],5x-8[8:1],1,5,C,{24}2b,3,4,5,6,7,8,,,
{8},1-5[8:1],1,8-6[8:1],8,2-4[8:1],2,,
{16}7,6,5/1x,4,3/1x,2,1/5x,8,{4}7pp1[8:2]/5x-3-1[8:2],{8},{16}B2,B1,
{8}E1,8x,8x,76,76,5,5,43,
{8}43,{16}2,5,2,5,1,6,1,6,{24}8b,7,6,5,4/8,7,6,5,4,
{8},2,2h[8:1],4,4h[8:1],6,6h[8:1],8,8,
{12}8b,7,6b/A2,5,4b/A8,3,2b/A6,1,8b/A4,7,6b/A2,5,
{1}4bw8[4:15]/Cf,,,,,,,{4},,,{12},{24},
{8},E8,,E2,,7<4[4:1],,7,3h[8:1],,2h[8:1],,1h[8:1],,5,6,7,2>5[4:1],,2,,8,,7,7,3,3,5,5,1-5[8:1],,1,
{8},E4,,E6,,2>5[4:1],,2,6h[8:1],,7h[8:1],,8h[8:1],,4,3,2,7<4[4:1],,7,,1,,2,
{6}2h[3:1],6,5,4h[3:1],8,1,2-8-6-4[4:4]/3-7-3[4:4],
