&title=fairy stage
&artist=K2 SOUND
&first=0
&des=仙家军
&lv_5=13
&inote_5=(128)
{1}
,
{8}
6h[4:4],,4,,,,5,,3h[4:4],,4,,,,5,,7h[4:3],,5,,,,4>7[8:5],,,,,,,5,
5qq2[4:3],,6,,6,,6,,6,,7h[4:1],,6h[4:1],,5,,7qq4[4:3]/4,,3,,3,,2,,1-4[8:1],,
1,8-5[8:1],,7>6[4:1],,C,,,
{16}7/3,,2,1,,1,3h[8:1],,1-3[12:1],8,7-5[12:1],,,,,,
4h[8:1],,6,5,,5,7h[8:1],,6v4[8:1],5,4h[8:1],,,,,,
2/5,,3,4,,4,2h[8:1],,3-1[12:1],4,5-7[16:1],,,,,,
8,,8-4-6[4:1],,,,6>5-3[32:5],,,,7,,7b,,,,
2/6,,7,8,,8,6h[8:1],,8-6[12:1],1,2-4[12:1],,,,,,
5h[8:1],,3,4,,4,2,,
1/8h[16:3],,,7h[16:3],,,6pp5>2[2:1],,6h[8:5],,,,,,,,,,,,,,37,,
2,1,2,1,3,4,3,4,2,3,4,5,1b,,28,,
37,,45,45,,,6h[8:1],,1,,78,78,,,2h[8:1],,1,,34,34,,,6h[8:1],,5,7,5,7,6x,,6x,,
84,,12,12,,,3h[8:1],,6,,45,45,,,7<2[8:4],,8,,E3,,,,E5,,,,E7,,1x/8x,,,,
62,,54,54,,,3h[8:1],,8,,21,21,,,7h[8:1],,5,6,4,5,,5,4,6,,5,6h[16:3],4h[16:3],,,,,
1,8,2,1,,1,2,8,,1,8h[16:3],2h[16:3],,,,,4,3,5,4,,4,5,3,,4,3h[16:4],5h[16:3],,,,,
2b/6b,,3,4h[16:3],,,2,2,5h[16:2],,3,4h[16:3],,,2,,25,,
3/4>1[8:1],,65,,7>8-5>4[4:1],,,,1x,,2x,,3x,,
25,,3,4h[16:3],,,2,2,5h[16:2],,3,4h[16:3],,,2,,25,,
36,,47,,8-6>4[16:3]/5v2>3[16:3],,,,,,,,,,
16,,7,8h[16:3],,,6,6,1h[16:2],,7,8h[16:3],,,6,,61,,
8/7>2[8:1],,65,,4>3-8>1[4:1],,,,7x,,6x,,5x,,
16,,7,8h[16:3],,,6,6,1h[16:2],,7,8,,,1x/6xp2[16:2],,
1hx[16:3]/6x,,,,,,8x/3xq4[16:4],,8xh[16:3]/3x,,,,,,,,
{16}
7xh[8:1]/8x,,5,6h[8:1],,8,7h[8:1],,5-1[8:1],5,6-8[12:1],,5,,6,,
1xh[8:1],,4,3h[8:1],,7,5h[8:1],,2<5[4:1],2,4,,3/2,,,,
2xh[8:1],,8,1h[8:1],,5,4h[8:1],,8-6[12:1],8,5-1[8:1],,8,,5,,
6xh[8:1],,8,7h[8:1],,3,4h[8:1],,7-3[8:1],7,5,,74,,,,
2xh[8:1]/1x,,4,3h[8:1],,1,2h[8:1],,4-8[8:1],4,3-1[12:1],,4,,3,,
8xh[8:1],,5,6h[8:1],,2,4h[8:1],,7>4[4:1],7,5,,6/7,,,,
7xh[8:1],,1,8h[8:1],,4,5h[8:1],,1-5[12:1],1,4,,1,,8,,
3x/7x,,,2x/6x,,,1x/5xh[8:4],,D8,D7,D6,D5,D4,D3,D2,,
2x/7x,,1,8,2-5[12:1],,1-6[12:1],8,2x,,1x,,4,4h[8:1],,6,5>2[12:1],7,4,6,5,,
8-3b[12:1],1x,7-4b[12:1],,8b,,7b,,2,,
1/6,,8,7,1-5[12:1],,2,8,1x,,7,,3,4,,5,46,,7x,,34,2x,,5,46,,7x,,34,1x,,,
7x/2x,,8,1,7-4[12:1],,8-3[12:1],1,7x,,8x,,5,5h[8:1],,3,4<7[12:1],2,5,3,4,,
1-6b[12:1],8x,2-5b[12:1],,1b,,2b,,7,,
8/3,,1,2,8-4[12:1],,7,1,8x,,2,,6,5,,4,53,,2x,,65,7x,,4,53,,2x,,65,8x,,,
7xh[8:1]/3,,4,5,3-8[12:1],,4-7[12:1],5,3x,,4x,,1,1h[8:1],,7,8>3[12:1],6,1,7,8,,
5-2b[12:1],4x,6-1b[12:1],,5b,,6b,,3,,
4/7,,5,6,4-8[12:1],,3,5,4x,,6,,2,1,,8,17,,2x-5[12:1],4,3,4,2x,,
6x,,7x-4[12:1],5,6,5,7x,,
2xh[8:1],,5,4,6-1[12:1],,5-2[12:1],4,6x,,5x,,8,8h[8:1],,2,1<6[12:1],3,8,2,1,,
4-7b[12:1],5x,3-8b[12:1],,4b,,3b,,6,,
5/2,,4,3,5-1[12:1],,6,4,5x,,3,,7,8,,1,82,,7-4[12:1],5,6,5,7,,
3x,,2x-6[12:1],4,3,5,2x,,8h[8:1],,3,1,3,,6,8,6,,27,,5/4-2-8-6[16:6],54,,,
Ch[2:1],,,,,,,,E7,E8,E1,E2,E3,,1x/8x,,
{16}2b/6b,,7,8,,2,1h[8:1],,2-8[12:1],3,4-6[12:1],,2x,,4x,,
3h[8:1],,6,5,,3,4,,1x-5[12:1]/2x-5[12:1],3x/8x,4x/7x,,,,,,
7/4,,6,5,,3,4h[8:1],,3-1[12:1],4x,5-7[12:1],,3x,,5x,,
8,,8-4-6[4:1],,,,6>5-3[32:5],,,,7,,7b,,,,
{16}7b/3b,,2,1,,7,8h[8:1],,7-1[12:1],6,5-3[12:1],,7x,,5x,,
6h[8:1],,3,4,,6,5,,8x-4[12:1]/7x-4[12:1],6x/1x,5x/2x,,,,,,
2/5,,3,4,,6,5h[8:1],,6-8[12:1],5x,4-2[12:1],,6x,,4x,,
1-5[8:1],,7-3[8:1],,1,,7,,8,1,2,3,{32}2x,1,8,7,6,5,4,3,2b/Cf,,,,
