&title=おどロボ
&artist=海茶 feat.琴葉姉妹 with ずんだもん
&first=0.1
&des=ヤミヨル
&wholebpm=145
&des_1=音合わせ
&des_5=ヤミヨル
&lv_1=音
&lv_5=13
&inote_1=(145){4}
1,1b,1,1,1,1b,1,1,1,1b,1,1,1,1b,1,1,1,1b,1,1,1,1b,1,1,1,1b,1,1,1,1b,1,1,1,1b,1,1,1,1b,1,1,1,1b,1,1,1,1b,1,1,1,1b,1,1,1,1b,1,1,1,1b,1,1,1,1b,1,1,1,,,,E
&inote_5=(145)
{8}
6,5,4/7b-4[8:1],3,7,2,1-5[8:1],4,1,6,7-2[8:1],3-6[8:1],7,3,1-5[8:1],,4,3,2-6[8:1],4,,7-3[8:1],4,,1,1h[4:1],,4,25,36,{16}7b/E4,E5,E6,E7,E8,E1,E2,E3,
{8}
E4/8h[4:1],,3xh[4:1],,4^7[16:3],4,2x,3,4^1[16:3],4,6x,5,4-8[8:1],,E2/E3/B2,E2/E3/B2,
7h[4:1],,4xh[4:1],,1^6[16:3],1,3x,2,1^4[16:3],1,7x,8,1p5[8:1],,E4/B3/B4,E4/B3/B4,
2x-6[8:1],,4xh[4:1],,8^3[8:1],8,7x,6,5^8[8:1],5,4x,3,2^5[8:1],,B6/B7/E7,B6/B7/E7,
8x-4[8:1],,8x-2[8:1]*-3[8:1],,8x-6[8:1]*-5[8:1],,8x,,34,8,56,1,{16}E7,E6,E5,E4,E3,E2,E1,E8,
{8}
E7/4-8[8:1],,8,,1-3[8:1]/4-8[8:1],,1/4,,4-8[8:1]b/7-5[8:1]b,,4/7,,1b,,1b,,
4-8[8:1]b/2-4[8:1],,4/2,,7-4[8:1]/4-8[8:1]b,,7/4,,1^4[8:1]/4-8[8:1]b,,1/4,,{16}7b,,1b,8b,{8}1b,,
5v8[8:1],,2,,7-5[8:1]/5v8[8:1],,7/5,,5v8[8:1]b/1^2-4[8:1]b,,5/1,,8b,,8b,,
4^1[8:1],,8,,8^5[8:1],,4,,34,56,24,57,{16}1-5[8:1],8,1,8,1,,,,
{8}
7-4[8:1],4,7,3,2-5-1[4:1],6,2,7h[4:1],,8-4[8:1],1-3[8:1],8x,1x,,5,{16}3,4,{8}
3,2^5[8:1],,5,6^1[8:1],,1,2,{16}2,,6,5,,3,4,,7h[8:1]/2,,{24}5,6,4,5,,,3,,,{8}
2^4[8:1]/6^8[8:1],,2-5[8:1]/6-2[8:1],,26,,3-5[8:1]/7-1[8:1],,37,,3>5[4:1]/7,,,,,{16}3,4,{8}
3-7[8:1]*-8[8:1],,3x,,6-2[8:1]*-1[8:1],,6x,,{16}25,,3,4,,4,2,,1/E7,E6,E5,E4,E3,E2,E1,E8,
{8}E7/2-5[8:1],5,2,6,7v4q8[4:1],3,7,2h[4:1],,1-5[8:1],8-3[8:1],1x,8x,,26,,
7-4[8:1]/4-8[8:1],,74,,8^3[8:1]/4^7[8:1],,84,,{16}37,,6,5,,3,4,,7/2h[8:1],,{24}4,3,5,4,,,6,,,{8}
7^5[8:1]/3^1[8:1],,7-4[8:1]/3-7[8:1],,73,,6-4[8:1]/2-8[8:1],,62,,6<4[4:1]/2,,B7/Cf/B2,,,{16}6,5,{8}7^4[8:1],,7,3,2v5[8:1],5>1[6:1],2^7[8:1],7pp4[8:3],,,,,{16}E7,E6,E5,E4,E3,E2,E1,E8,
{8}E7/3h[1:1],,1,,8,,7,,6V47[4:1],,3,,2V83[4:1],,7,,6-1[8:1],,4-7[8:1],,2-5[8:1],,8<1[2:1],,,,,,,
4,4,35,2-6[8:1]/6,,2,5^8[8:1],,5-2V48[8:3],,5,,,7,7h[2:1],,1h[4:1],,,2^5[8:1],1,2,1,8^5[8:1],1,8,1,{16}2h[8:1]/4h[8:1],,,5h[8:1]/7h[8:1],,,1/8,,2h[8:1],,4h[8:1],,5h[8:1],,7h[8:1],,
{8}1h[1:1],,4,,5,,6,,6V47[4:1],,3,,2V83[4:1],,7,,6-1[8:1],,4-7[8:1],,2-5[8:1],,8<1[2:1],,,,,,,,
27,,3/4<8[16:3],,1,,5>1[16:3],,8,,4<8[16:3],,1,,,27,1^4[8:1]/8,,1/8^5[8:1],,1^4[8:1]/8,,1/8^5[8:1],,18,1h[4:1],,8-4[8:1],1-5[8:1],8,1,,,,
{1}
4x-8[2:3]b,,,,4x-8[2:3]b,,{2}6h[2:1],5h[2:1],4h[2:1],3h[2:1],{4}4x-8[2:3]b,3,3,3,2,2,2,2,1,1,1,1,8,8,8,8,2h[4:5]/7h[4:6],,,,,,,,4>5pp8[1:1]b/5<4qq1[1:1]b,,,,,,{16}E2,E3,E4,E5,E6,E7,E8,E1,{8}
E2/5^8[8:1],1,5,3,2-6-4[4:1],6,2,8h[4:1],,4-8[8:1],3-1[8:1],4x,3x,,1,{16}7,8,{8}
7,6^3[8:1],,3,2^7[8:1],,7,6,{16}6,,3,4,,6,5,,2h[8:1]/7,,{24}4,3,5,4,,,6,,,{8}
2^4[8:1]/6^8[8:1],,2-5[8:1]/6-2[8:1],,26,,3-5[8:1]/7-1[8:1],,37,,3>5[4:1]b/7,,,,,{16}3,4,{8}
3-7[8:1]*^8[8:1],,3x,,6-2[8:1]*^1[8:1],,6x,,{16}25,,3,4,,4,2,,1/D7/E7,D6/E6,D5/E5,D4/E4,D3/E3,D2/E2,D1/E1,D8/E8,
{8}D7/E7/4^1[8:1],8,4,6,7-3-5[4:1],3,7,1h[4:1],,5-1[8:1],6-2[8:1],5x,6x,,83,,
6-3[8:1]/4-1[8:1],,46,,4^7[8:1]/8^3[8:1],,48,,{16}3,,6,5,,3,4,,7h[8:1]/2,,{24}5,6,4,5,,,3,,,{8}
7^5[8:1]/3^1[8:1],,7-4[8:1]/3-7[8:1],,73,,6-4[8:1]/2-8[8:1],,62,,6<4[4:1]/2,,B7/Cf/B2,,,{16}6,5,{8}7^4[8:1],,7,3,2v5[8:1]b,5>1[6:1]b,2^7[8:1]b,7pp4[8:3]b,,,,,{16}D7/E7,D6/E6,D5/E5,D4/E4,D3/E3,D2/E2,D1/E1,D8/E8,
{4}D7/E7/4-8[8:1]b,A4f,5-1[8:1]b,A5f,{16}24,,,57,,,18,,27,,,,
45,,36,,{8}2/7b-4[8:1],3,7,2,1-5[8:1],4,1,6,7-2[8:1],3-6[8:1],7,3,1-5[8:1],,4,3,2-6[8:1],4,2,4,5-8[8:1],8,5,1,2,34,56,78,1/2h[4:1],{24}4,5,6,7,,,1,,,{8}
4/7b-4[8:1],3,7,2,1-5[8:1],4,1,6,7-2[8:1],3-6[8:1],7,3,1bw5[8:1],,1b,,37,26,15,8h[1:1]/4,,4-7-2-5-1[2:1]b,,,,,,,45,67,8/1w5[8:1]b*-5-1[1:2],23,1b,,,,,,,,,,,,,,,,,,,,,,,,,,,,,,E
,
