&title=Arche
&artist=Camellia
&first=0.02
&des=PXPLE
&des_5=PXPLE
&lv_5=14.9
&inote_5=(200){4},,,,{32}5/1,
2/6,{16}3bx-6-4b[16:19]`7bx-2-8[16:19],{1},{4},,{8},{4}3h[16:5]/4h[8:1],
{16},4,,,{4}5h[16:5]/4h[8:1],{16},4,,,{4}6h[16:5]/5h[8:1],
{16},4,,,{4}6h[16:5]/4h[8:1],{16},3,{8}4,2,4,
{16},5,{8}3,4,5,{16},3,{8}4,{16}6,5,{8}7h[8:1],
{16},2,{8}1,{16}3,4,{8}3h[8:1],{16},6,{8}5,{16}7,8,{8}7,
{16},3,{8}4,{16}2,1,{8}3h[8:1],{16},7,{8}8,{16}2,1,{8}3,
5,5,{16}8,1,2,3,4,5,6,7,8/4x-6[8:1],1,2,3,
{8}4bx,7-1[8:1],2,7bx/5bx,4,3,5-7[8:1],2,
5bx/4bx,3-8[8:1],2,3bx/4bx,5,6,{16}7x,8x,1x,2x,
{8}4bx/3bx,5-3[8:1],8,5b/6b,7,1,8,2,
6h[4:1],5,4,3x/4x,,4x/5x,,6x/5x,
6b/5b,4,4-6[8:1],2,4/3,2,1-3[8:1],7,
1/8,7-1[8:1],4,7x/5,2,3,{16}4,3,5,4,
{8}6h[8:1],4-8[8:1],3,4/5,6,7,1,2,
3/4,5,6,{16}5,6,{8}5,{16}4,5,{8}4,{16}3,4,
{4}3pp6[2:3],E7,E8,E1,
E2,E3,E4,E5,
2pp5[2:3],E6,E7,E8,
E1,E2,E3,E4,
{8}1,{16}1,B7,{8}1,1,3/4,{16}3,B5,{8}3,3,
2,2,6-1[8:1]/2-5[8:1],1,{2}2bx<7[8:1]/6bx>3[8:1],
{8}2,{16}2,1,{8}2,8h[8:1],{16}1,2,3,4,5,6,7,8,
{4}1/5-3-8-6-1[2:1],,,Cf,
{2}2-5[8:1]/6-1[8:1],{16}3-8[8:1],4,{8}2,3,{16}6,5,
{8}6,B1,{16}4,3,{8}4,2h[8:1],5h[8:1],8s4[4:1],6,
{4}8x,1b,{16}6-1[8:1],5,{8}7,6,{16}3,4,
{8}3,B8,{16}5x,5x,5x,5x,5x,5x,5x,5x,{4}4xz8[0.3##0.3]/6xv1[0.3##0.3],
{8}4/6,,{16},,,,2-5[8:1],1,{8}3,2,{16}7,8,
{8}7,B3,{16}6,5,{8}6h[8:1],{16}4,5h[8:1],,,3>4[4:1],4h[8:1],,,{4}3,
{16}7x-3[8:1],7x,,,2x-5[8:1],2x,,,8x,8x,,,{8}1,
3h[16:1]/4h[16:1],5h[16:1]/6h[16:1],{32}E7,B7,B8,E1,{8}2-5[8:1],7x,2<4[4:1],8,
{4}2,8b,{16}3-8[8:1],4,{8}2,3,{16}6,5,
{8}6,B1,{16}4,3,{48}A3,D3,A2,D2,A1,D1,A8,D8,A7,D7,A6,D6,A5,D5,A4,D4,A3,D3,{4}8b,
5-1b[8:1],5b,{16}2-5[8:1],1,{8}3,2,{16}7,8,
{8}7,B3,{4}1<2[8:3],{8},,,,7,
7,7/1,7,2/5,2,2/8,2,
4/3,4,4/1,4,2/5,2,2/8,2,
1,{16}3,4,{8}2,{16}6,5,{8}8,{16}3,4,1,6,5,8,
2,4,3,6,{48}A1,D1,A8,D8,A7,D7,A6,D6,A5,D5,A4,D4,{16}8bx-4b[16:3],,,7bx,,,{8}1bx,
{48}A1,D2,A2,D3,A3,D4,A4,D5,A5,D6,A6,D7,A7,D8,A8,D1,A1,D2,A2,D3,A3,D4,{24}A4,{16}8x,7x,6x,5x,4x,3x,2x-5[8:1],1x,
{8}8x-4[16:3],2,{16},8,{48},,,,,,{12}1,5,5,5,5,5,
3,4,4,4,4,4,7,5,5,5,5,5,
{8}1>5[8:1],8,,7,{16}8,1,2,3,4,5,6,7,
{2}4/8-4[8:1],{16}1,4x,4x,4x,4x,4x,4x,4x,
4x,4x,{8}3/5,{16},4/6,,,{8}1>4[4:1],7,7,7,
8<5[4:1],3,3,2,{4}1-3[8:1],{16}1-5[8:1],8,,,{8}1,
8xh[4:1],,3,4/3,5,6/5,{32}4,,,,
{24}1x<6[8:1],2x,{12}3x,,{4}1,{12}2,8,8,8,8,8,
{16}8,8,{8}1/7,{16},2/8,{48},,,,,,{12}3,5,5,5,5,5,
7,4,4,4,4,4,{8}2xz6[4:1],2x,,,8xs4[4:1],
8x,,,{2}1h[4:1],
{8}2,{16}6,5,{8}7,{16}3,4,{8}1,{16}6,5,{8}7,{16}3,2,
{8}4,{16}1,8,{8}2,{16}3,4,{8}2,{16}6,5,{4}7,
{6}1h[12:1],2h[12:1]/4h[12:1],5h[12:1]/3h[12:1],4h[12:1]/6h[12:1],5h[12:1]/3h[12:1],4h[12:1]/6h[12:1],
{12}1x,1,7,3x,3,5,{2}4xw8[8:1],
{4}5/2h[8:1],3/6h[8:1],7/4h[8:1],3/5h[8:1],
{8}5/2h[8:1],5,3/6h[8:1],3,7/4h[8:1],7,3/5h[8:1],3,
6/2h[8:1],6,3/5h[8:1],2,4/6h[8:1],3,7/4h[8:1],7,
8/2h[8:1],7,4/6h[8:1],{16}3,4,{8}3,{16}4,5,{8}4,{16}5,6,
{4}5p1[2:1],6,6,7,
8p4[2:1],1,1,2,
3p7b[8:1],5,6q2b[8:1],4,
{8}5/3h[8:1],8,{16}1,8,2,7,3,6,4,5,{8}4xh[8:1],{32}1x,8x,7x,6x,
{4}5x/2x-5[8:1],{8}2,8<3[4:1],,,,,1b-5[8:1],
,,7b-3[8:1],{16},,,,,1,8,1,
{8}8b-4[8:1],,,2b-6[8:1],,,{4}8,
B1,B3,B5,B7,
{16}4/3,,,5,,,{8}5/6h[8:1],{2}8b,
{16}5/6,,,4,,,{8}4/3h[8:1],1b,{16},,,,7,6,
{4}5/8b,{8}B2,B1,B8,B7,B6,B5,
{4}1-5[4:1],1,1w5b[8:1],1b,
{8}1/8,{16}3,4,{8}2,{16}3,4,{8}1,{16}4,5,{8}2,{16}5,6,
{8}1,{16}4,5,{8}2,{16}3,4,{32}8x-4[8:1]*-3[8:1],7x,6x,5x,4x,3x,2x,1x,{4}8bx,
{8}8/1,{16}6,5,{8}7,{16}6,5,{8}8,{16}5,4,{8}7,{16}4,3,
{8}8,{16}5,4,{8}7,{16}6,5,{32}1-5[8:1],2,3,4,5,6,7,8,{4}1bx,
{16}2/8,,,3,{8}3/4,7,5/6<1[8:1],3,{4}6/4,
{8}2-5[8:1],8,{4}2/1s5s1[8:3],{8},,,,2-4[8:1],
{16}7,7,{8}2-8[8:1],{16}5,5,{8}2z6b[4:1],7,{4}2,
{8}8x-4[8:1],8,1x-3[8:1],1x,7x-5[8:1],7x,{4}8b,
{8}1,{16}3,4,{8}1,{16}4,5,{8}2-5[8:1],8,{4}2/1,
{8}7-4[8:1],1,{4}7/8,{8}3-8b[8:1],2,{4}3/4,
{8}7,{16}6,5,{8}8,{16}5,4,{8}7-4[8:1],1,{4}7/8,
{8}2-5[8:1],8,{4}1/2<7[8:1],{8}4,4,{4}C,
{16}3h[8:1]/4h[8:1],,,2,{8}4/2h[8:1],1,4/6<1[8:1],7,{4}6/5,
{8}2>4[8:1],8,{4}1/2<5b[4:1],2,1,
{8}2<5[4:1],{16}3,4,{4}2,1-5[8:1],1,
{8}2,3h[8:1]/4h[8:1],{16},4h[8:1]/5h[8:1],,,{4}5-2[8:1]/6-1[8:1],Cf,
{8}3/8-6[8:1],2,8/1,2,3/4-7[8:1],5,{4}4/1,
{8}8/2-4[8:1],1,{4}2/6-8[8:1],{8}6/5,2,{4}3h[8:1]/4h[8:1],
{8}8>3[8:1],6,8/7,5,1-6[8:1],3,{4}1/2,
{8}8/1,{16}3,4,{8}2,7,{32}1xw5[8:1],2x,3x,4x,5x,6x,7x,8x,{4}1bx,
{8}8x,{16}3,4,{8}1,7,2-5[8:1]/1-6[8:1],8/3,{4}2/1,
{8}8,{16}6,5,{8}1,{16}5,4,{8}8>3b[8:1],6/5,{4}8,
{8}1,{16}3,4,{8}2-6b[8:1],8,{4}2/4h[4:1],B8/B7,
{8}1/2,3h[8:1]/4h[8:1],{16},4h[8:1]/5h[8:1],,,{4}5-2[8:1]/6-1[8:1],Cf,
{32}B1,B2,B3,B4,B5,B6,{16}B7,{4}1-3[8:1],{8}5/1-6[8:1],7,{4}1/2V46[4:1],
{8}7/2,8,{4}1-6[8:1],{8}1/5-2[8:1],3,{4}5/8,
{8}1/8,{16}3,4,{8}1-7[8:1],6,1w5[8:1],5,{16},,,,2,
4h[8:1],,3,{8}5-1b[8:1],6,{4}5w1[8:1],Cf,
{8}3>8[8:1]/7<4[8:1],2/6,{4}3/7,{16}1h[8:1]/5h[8:1],,,4h[8:1]/2h[8:1],,,{8}3/5,
6<1[8:1]/2>5[8:1],7/3,{4}6/2,{16}8h[8:1]/4h[8:1],,,5h[8:1]/7h[8:1],,,{8}6/4,
{16}2>4[8:1],1,,1,{8}2,8,{16}7<5[8:1],8,,8,{8}7,1,
4h[4:1],{16}B8,B7,B6,B5,B4,B3,{32}E2,E3,E4,E5,E6,E7,E8,E1,B1,B2,B3,B4,B5,B6,B7,B8,
{8}8xh[4:1]/B1,,,5xh[4:1]/3x>5[4:1],,,,,1xh[4:1]/2xh[4:1],
,,3xh[4:1]/5xh[4:1],{24},,,,,,{12}7x,8x,7x,
{8}1xh[4:1],,,4xh[4:1]/6x<4[8:3],,,,,B8,
B7,B6,B3/B4,,B8/B7,,B2/B3,
2bx/1,7-4[8:1],,7,{2}1b,
{8}8b/7b,1-5[8:1],,1,8,{16},,,,2,1,
{8}2>5[4:1],,,8<1[8:3],,,,,{4}Cfh[4:3],
,,8b,
{2}2-5[8:1]/6-1[8:1],{16}3,4,{8}3,B7,{16}2,1,
{8}2-5[8:1],7h[8:1],2,8,{2}1w5[8:1],
{8}7-4[8:1]/3>8[8:1],8,{16},,,,1-5[0.3##0.15]/5-1[0.3##0.15],2/6,{8}3/7,{16},,,,{8}6/4-8[8:1],
3/4h[4:1],,,{2}1w5[8:1],
3-8[8:1]/7-4[8:1],{16}1,8,{8}1,B7,{16}3,4,
{8}3,B6,{16}4,5,{8}4,{32}8,7,6,5,4,3,2,1,{4}8/C,
{8}7,{16}2x,1x,2x-4[8:1],1x,2x,1x,{8}2x-8[8:1],6,{4}2,
{8}2v7[8:1]/5v8[8:1],2h[8:1]/5h[8:1],,,6v3[8:1]/1v4[8:1],6h[8:1]/1h[8:1],,,{2}2-6[8:1]/6-2[8:1],
{8}8-4b[8:1]`4-8[8:1],3/7,{4}4xV27[4:1]/8xV63[4:1],
,,{2}1-5[8:1]/5-1[8:1],
{8}2-6[8:1]/6-2[8:1],3/7,,,8>3[8:1]/4<7[8:1],1/5,,,{2}4w8[8:1],
{4}3h[4:1]/5h[8:1],1,
{8}2/4,2,3/5,3,4/6,4,5/3,5,
4/2,{16}1,8,{8}3,{16}2,1,{8}4,{16}3,4,{8}2,{16}4,5,
{8}1-5[8:1],2,7-3[8:1],8,1-5[8:1],2,{32},,,,,,,,4x,
3x,2x,1x,8x,7x,6x,5x,4x,3x,2x,1x,8x,7x,6x,5x,{2}4x-8[8:1],
{1}1V37V51<1b[2:31],
{8},,,,,,,,,,B3,
B4,{24},,{12}B6,B2,B8,{6}Cfh[6:31],
{1},,,{4}8x,
8xh[4:3],,,,,,,{1}7b,
,,,5xh[1:3],
,,,{8}4/3h[8:1],
5,6,5,4h[8:1],3,5,6,
5,4,5h[8:1],4,4/3h[8:1],6,4,5,
3h[8:1],4,6,4,5h[8:1],3,6,4,
5,6,4h[8:1],6,5/3h[8:1],4,6,5,
4/7,6,5,4,3h[8:1],2,4,6,
5,4,6h[8:1],2,3h[8:1],6,5,4,
3h[8:1],5,6,7,5h[8:1],3,6,4,
7,5,2h[8:1],6,5h[8:1],3,6,5,
4/6,7,5,4,3h[8:1],2,4,6,
5,4,6h[8:1],2,3h[8:1],6,5,4,
3h[8:1],5,6,7,5h[8:1],3,6,4,
7,5,2h[8:1],6,5h[8:1],3,6,5,
4/7,6,5,4,3h[8:1],2,4,6,
5,4,6h[8:1],2,3h[8:1],6,5,4,
3h[8:1],5,6,7,5h[8:1],3,6,4,
{1}5<4[8:5]/4>5[8:5],
{8}1bh[4:1]/6bh[4:1],,,1b-5[8:1]/6b-2[8:1],,,,,3bh[4:1]/8bh[4:1],
,,3bv6[8:1]/8bv5[8:1],,,,,1b-5[8:1],
,,7bv4[8:1],,,{4}2b-8[8:1],
{8},6b<3[8:3],,,,,,,8bh[4:1]/3bh[4:1],
,,8b-4[8:1]/3b-7[8:1],,,,,6bh[4:1]/1bh[4:1],
,,6bv3[8:1]/1bv4[8:1],,,,,8b-4[8:1],
,,2bv5[8:1],,,{4}7b-1[8:1],
{8},3b>6[8:3],,,,,,,4bh[4:1]/7bh[4:1],
,,4b-8[8:1]/7b-3[8:1],,,,,2bh[4:1]/5bh[4:1],
,,2bv7[8:1]/5bv8[8:1],,,,,4b-8[8:1],
,,6bv1[8:1],,,{4}3b-5[8:1],
{8},7b<2[8:3],,,,,,,{4}1-3-5[2:1],
8,8,{8}7,7,
{4}6V82[4:1],3,{2}4-8[8:1],
{16}1,8,1,7,1,6,1,5,1,4,1,3,{4}1h[4:1],
{16}8,1,8,2,8,3,8,4,8,5,8,6,{4}8h[4:1],
{16}1,8,2,7,3,6,4,5,{24}3,2,1,8,7,6,3,2,1,8,7,6,
{32}1x,2,3,4,5,6,7,8,1,2,3,4,5,6,7,8,1,2,3,4,5,6,7,8,{4}1bx,
{8}3/4,1,6/5,8,3/4,2,6/5,8,
{16}1,6,2,5,{24}3,4,3,5,{48},{16}2,6,1,{24}7,8,7,8-3-5-2[4:3],7,8,7,8,7,
{1}8bx,
{8}B7,B6,B5,B4,{4}1-5[8:1],1,
{16}3,4,2,6,5,7,4,8,{8}1h[8:1],{16}6,5,7,4,6,3,
{8}5h[8:1],{16}3,4,2,4,1,4,8,4,1,5,2,6,3,7,
{8}4,{16}3,4,{8}2,5x,4x-8[8:1]/6x-2[8:1],3x/7x,{4}4x/6x,
{16}1,5,2,6,3,7,4,8,5,1,4,8,3,7,2,6,
{8}1h[8:1],{16}4,3,6,5,6,5,{8}8,{16}3,5,2,8,4,6,
{8}3h[8:1],{16}6,5,{8}8,{16}4,2,{8}6,{16}4,8,5,6,4,8,
{8}5h[8:1],{16}3,4,{8}2h[8:1],{16}8,1,{8}7v4[8:1]*v2[8:1],6/8,{4}7x,
{8}1h[8:1],{16}8,1,5,4,6,5,{8}8>5[16:3],7x/6x,,,1,
{16}3,4,2,6,4,7,{8}5h[8:1],{16}6,5,6,4,5,3,
{8}4h[8:1],{16}2,6,4,7,3,5,{8}4h[8:1],{16}6,2,8,4,7,3,
{8}5,{16}4,7,{8}1,{16}4,5,{8}1,{16}5,6,2>6[4:1],8,1,7,
2,,,,,8x/1x,8x/1x,1xh[8:1]/8xh[8:1],,,{8}3h[8:1]/4h[8:1],{16},5h[8:1]/6h[8:1],,,{8}1h[8:1],
{16}8,2h[8:1],,4,3,4,{8}2h[8:1],{16}8,1h[8:1],,6,5,7,
{8}1h[8:1],{16}8,2h[8:1],,4,3,4,3,4,2,5,1,6,8,7,
{8}1,{16}3,4,3,4,3,4,{8}1,{16}6,5,6,5,6,5,
8x,1x,2x,3x,4x,5x,6x,7x,B1,B7,B3,B5,C,B8,B2,B6,
{2}1xw5[8:1],{16}B1,B7,B3,B5,C,B8,B2,B6,
E2,E8,E3,B5,B3,B7,B2,B6,E1,E7,E3,B4,B5,B8,B2,C,
{8}1x,{16}2x,4x,3x,6x,5x,7x,{8}1-5[8:1],8/2,{4}1,
{12}3/4,2,2,5/6,7,7,3x/4x,2x,4x/5x,7x,5x/6x,4x,
{2}1xh[4:1]/3xh[4:1],{16}2,1,3,8,4,7,5,6,
{8}3h[8:1],B8,{16}2,1,2,1,3,4,2,5,1,6,8,7,
{4}1>4[8:1],{12}5,6,7,{4}8-4[8:1],8,
{8}1,3h[8:1]/8h[8:1],,3/8,{16}2,1,3,8,4,7,5,6,
{24}5,6,5,6,{12}5,4x/7x,{24},,,,{8}8/1,{16}3,4,2,6,5,7,
{8}1,{16}3,4,2,6,4,5,{8}3,{16}6,5,{8}8,{16}3,4,
{8}1x-6[8:1]*-4[8:1],3x/7x,{4}1x,{8}2h[8:1],{16}4,3,5,4,6,5,
{8}8h[8:1],{16}3,7h[8:1],,1,{8}6h[8:1],{2}2-6[8:1],
{16}8/1,1/8,,3/4,{4}3/4-6[8:1],{16}3/4,2,1,8,7,6,5,4,
{8}3/1,1/3,3/1-6-4[4:1],1/3,{16},,,,,,,,3x/4,
3x/5,3x/6,3x/7,{4}3x/8,{16}7x/8,1/7x,2/7x,3/7x,{4}4/7x,
{24}4,5,4,5,4,5,{16}3,6,3,6,{12}2x,7x,2x,1x/8x,,,{4}2/7-4[8:1],
{8}7/1,8,{16},2,,,{4}3h[8:1]/4h[8:1],
{8}8,7,6/5,4/5,{16},3/4,,,{4}6/C,
3/8,{8}5/6,4,{16},3b-7[8:1],,,5b-1[8:1],,,2b-6[8:1],
,,{8}8b-4[8:1],{16},1b>7[16:5],,,{2}1x,
{4}1/2,{8}8/7,1-5[8:1],{16},7-4[8:1],,,{4}3>6[4:1],
{8},,3,3/4,{16},5/4,,,{4}5/6,
1/2-5[8:1],{8}8/2,7bx-4[8:1],{16},1b-5[8:1],,,3b-7[8:1],,,2b-5[8:1],
,,{8}8b-4[8:1],{16},6b-1[8:1],,,{8}5,5,{4}2x,
7-4[8:1],{8}7/8,1-5[8:1],{16},7-3[8:1],,,{4}4>8[4:1],
{8},,6,7-4[8:1],{16},1-5[8:1],,,{4}1x,
8/7-4[8:1],{8}1/7,2bx-5[8:1],{16},8b-4[8:1],,,6b-2[8:1],,,7b-4[8:1],
,,{8}1b-5[8:1],{16},3b-8[8:1],,,{8}4,4,{4}7x,
1-5[8:1],{8}1/7,8-4[8:1],{16},2-5[8:1],,,{4}6-1[8:1],
{8}6,2,3/4,5/4,{16},5/6,,,{4}5/4-1[8:1],
{1}4/5,
{4}Ch[4:3],{16},,,,,,,,1,2,3,4,
{2}5/1-5[8:1],{16}3,4,{8}3,B2,{16}6,5,
{8}6,8,{16}1,1,1,1,1,1,1,1,{4}1w5[8:1],
C,8,{16}3-8[8:1],4,{8}3,{16},,6,5,
{8}6,B2,8-4[8:1],1,8w4[8:1],2,,,{4}2-6[8:1],
2,{16}7-4[8:1],8,{8}7,{16},,2,1,
{8}2v5[8:1],B6,2-8[8:1],7,2-5[8:1],6,{4}2,
{2}8w4[8:1],{16}2,1,{8}2,7,{16}3,4,
{8}3,B8,5-1[8:1],8,5-3[8:1],7,{4}5,
8-5[8:1],{16}1/8,,,2,,4<7[8:1],{8}3h[8:1],,,1-5[8:1],
2/8,{16},,,7w3[8:1],,,{8}7,,,3/4-7[8:1],
1,,,2/1,6,{16}3,4,3,4,
{8}3V17[4:1],5,{4}3,4w8[8:1],4,
2-5[8:1],1/2,{16}7,8,{8}7,2,{16}6,5,
{8}6h[8:1],{16}4,5h[8:1],,3>5[16:5],{8}4h[8:1],,,,,2>5[8:1]/4<7[8:1],
2/4,,,8-4[8:1],7,{4}1-3[8:1],
{8}6-4[8:1],6,{16}8b,,,7x/8x,,,{8}1,{4}3h[8:1]/4h[8:1],
{8}2,{16}3,4,{8}1b,{16}4,5,{8}2b,{16}5,6,{8}1b,{16}3,4,
{8}8-4[8:1],7/1,,,{4}2h[8:1]/6h[8:1],1>4[8:1]/5<8[8:1],
{32}D2f/D6f/1bxp7[2:15]/5bxp3b[2:15],A2/A6,D3/D7,A3/A7,{8}D4/D8,{1},,,,,,,{4},,{8},{16}3/7,
2/6,
{1}1qq3[4:15]`5qq7b[4:15],
E
