&title=ずれていく
&artist=wowaka
&first=-0.07
&des=楓
&lv_5=13+
&inote_5=(170)
{1},,
{8}1,2,
{16}E4,B4,B5,E6,
{8}7hx[4:1],1,3,,
{8}8,7,
{16}E6,B5,B4,E4,
{8}2hx[4:1],8,6,,
{8}4,3,
{16}E2,B1,B8,E8,
{8}6hx[4:1],4,2,,
{8}5,6,
{16}E8,B8,B1,E2,
{8}3x/6x,45,2b/7b,,
{8}1,2,
{16}3,4,3,4,
{8}3-7[8:1],2,3,,
{8}8,7,
{16}6,5,6,5,
{8}6-2[8:1],7,6,,
{8}4,3,
{16}2,1,2,1,
{8}2-6[8:1],3,2,,
{8}5,6,
{16}7,8,7,8,
{8}7q3b[8:1]*p3b[8:1],6,7bx,,
{8}1,5,
{16}3,4,3,2,
{8}3p6[8:1],5,3,,
{8}8,4,
{16}6,5,6,7,
{8}6q3[8:1],4,6,,
{8}4,8,
{16}2,1,2,3,
{8}2q7[8:1],8,2,,
{8}5,1,
{16}7,8,7,6,
{8}7p2b[8:1]*q4b[8:1],1,7bx,,
{16}1,8,1,8,1>4[8:1],,7,,
{4}1<6[8:1],1-4[8:1],1-6[8:1],1-5[8:1],1,,
{16}5,4,5x,6x,5x-3[8:1],,5x,,
{4}5x-7[8:1],5-2[8:1],5-8[8:1],5-1[8:1],5,,
{16}8,1,8,1,8<5[8:1],,2,,
{4}8>3[8:1],8-5[8:1],8-3[8:1],8-4[8:1],8,,
{16}4,5,4x,3x,4x,,
{8}35,26,17,,8,
{4}8-6[8:1]*-5[8:1],8-2[8:1]*-3[8:1],8w4[8:1],8bx,
{8}2,1,
{16}3,8,3,8,
{8}3-8[8:1]*-6[8:1],24,3,,
{8}7,8,
{16}6,1,6,1,
{8}6-1[8:1]*-3[8:1],75,6,,
{8}3x,4,
{16}2,5,2,5,
{8}2-5[8:1]*-7[8:1],31,2,,
{8}6,5,
{16}7,4,7,4,
{8}7-1>2b[8:1]*-5>4b[8:1],68,7bx,,
{8}38,12,
{16}3,8,2,1,
{8}3>1[8:1]/8<6[8:1],14,38,,
{8}6x/1x,87,
{16}6,1,7,8,
{8}6<8[8:1]/1>3[8:1],85,61,,
{8}25,43,
{16}2,5,3,4,
{8}2>4[8:1]/5<7[8:1],41,25,,
{8}7x/4x,56,
{16}7,4,6,5,
{8}7-4b[8:1]/4-1b[8:1],58,7bx/4bx,,
{16}1x,8,2,7,1x-3<4[8:1],,
{8}1x,
{4}1x-7<6[8:1],1pp3[8:1],1qq7[8:1],1-5[8:1],1,,
{16}6,3,5,4,5x>3[8:1],,
{8}5x,
{4}5x<7[8:1],5-3>1[16:3],5-7>1[16:3],5-1[8:1],5,,
{16}8,1,7,2,8x-6>5[8:1],,
{8}8x,
{4}8x-2>3[8:1],8qq6[8:1],8pp2[8:1],8-5[8:1],8-3[8:1],8,
{16}3x,6,4,5,
{8}4,4-2[8:1]*-6[8:1],26,4,,
{8}8,17,17,26,26,37,
{16}37,48,15,,1b/5b,,
{16}3,8,2,7,
{8}1xv4[8:1],1x,
{4}1xv6[8:1],1-3[8:1]*-4[8:1],1-7[8:1]*-6[8:1],1w5[8:1],1,,
{16}6x,6x,4x,4x,
{8}5x-2[8:1],5x,
{4}5x-8[8:1],5>1[16:3]*V31[16:3],5<1[16:3]*V71[16:3],5w1[8:1],5,,
{16}6,1,7,2,
{8}8xv5[8:1],8x,
{4}8xv3[8:1],8-6[8:1]*-5[8:1],8-2[8:1]*-3[8:1],8w4[8:1],8,,
{16}3x,3x,5x,5x,
{8}4x-7[8:1],4x-1[8:1],4x-8[8:1],4x,4x,,
{8}26,,62,51,8-3[8:1]/4-7[8:1],,8b/4b,,
{8}4h[8:3]/8h[8:2],,,5h[8:3],6h[8:3],,,7h[8:2],3h[8:3],,1h[8:3],,5h[8:1],,15,,
{8}4h[8:3]/8h[8:2],,,3h[8:3],2h[8:3],,,1h[8:2],5h[8:3],,7h[8:3],,3h[8:1],,Chf[4:1],,B2/B3/B6/B7/A2/A3/A6/A7/D3/D7,,
{4},,,
{1},
{8}1,2,
{16}3,4,3,4,
{8}3-7[8:1],2,3,,
{8}8,7,
{16}6,5,6,5,
{8}6-2[8:1],7,6,,
{8}1,5,
{16}3,4,3,2,
{8}3p6[8:1],5,3,,
{8}8,4,
{16}6,5,6,7,
{8}6q3[8:1],4,6,,
{8}4,8,
{16}2,1,2,3,
{8}2q7[8:1],8,2,,
{8}5b,6,
{16}E8,B8,B1,E2,
{8}3hx[4:1],E6/B5,E7/B7,,
{16}1,8,1,8,1>4[8:1],,7,,
{4}1<6[8:1],1-4[8:1],1-6[8:1],1-5[8:1],1,,
{16}5,4,5x,6x,5x-3[8:1],,5x,,
{4}5x-7[8:1],5-2[8:1],5-8[8:1],5-1[8:1],5,,
{16}8,1,8,1,8<5[8:1],,2,,
{4}8>3[8:1],8-6[8:1],8-2[8:1],8-5[8:1],8-3[8:1],8,
{16}4,5,4x,3x,4x,,
{8}35,26,17,,8,84,84,26,26,17,35,28,6b/4b,
{16}1,8,2,7,1x-3<4[8:1],,
{8}1x,
{4}1x-7<6[8:1],1pp3[8:1],1qq7[8:1],1-5[8:1],1,,
{16}6,3,5,4,5x>3[8:1],,
{8}5x,
{4}5x<7[8:1],5-3>1[16:3],5-7>1[16:3],5-1[8:1],5,,
{16}8,1,7,2,8x-6>5[8:1],,
{8}8x,
{4}8x-2>3[8:1],8qq6[8:1],8pp2[8:1],8-4[8:1],8,,
{16}3,6,4,5,
{8}4x-7[8:1],4x-1[8:1],4x-8[8:1],4x,4x,,
{8}26,,62,51,8-3[8:1]/4-7[8:1],,8b/4b,,
{2}8hbx[8:3]/4hbx[8:3],7hbx[8:3]/3hbx[8:3],6hbx[8:3]/2hbx[8:3],5hbx[8:3]/1hbx[8:3],
{4}5hb[8:1]/1hb[8:1],6hb[8:1]/2hb[8:1],7hb[8:1]/3hb[8:1],8hb[8:1]/4hb[8:1],1s5[2:1]/5s1[2:1],
{4},,,
{16}25,,3,4,3,,2,,74,,6,5,6,,7,,
{8}2-6[8:1]/6,1,27,8,1-7[8:1]/5,4,13,2,
{8}1-6[8:1]/6,7,1-4[8:1]/4x,3,1-6[8:1]/6x,7,1-4[8:1]/4x,3,1-6[8:1]/6x,7,1-4[8:1]/4x,3,1-5[8:1]/6x,7,1bx/4x,,
{16}38,,2,2,1,,3,,61,,7,7,8,,6,,
{8}5-1[8:1]/1,2,35,4,5-1[8:1]/1x,8,57,6,
{8}2-6[8:1]/8,1,8-4[8:1]/2,1,2-6[8:1]/8,1,28,1,
{16}4bx,8,4,8,3bx,7,3,7,2bx,6,2,6,1hbx[8:1]/5hbx[8:1],,
{8},
{16}74,,6,5,6,,7,,25,,3,4,3,,2,,
{8}7-3[8:1]/3,8,72,1,8-2[8:1]/4,5,86,7,
{8}8-3[8:1]/3,2,8-5[8:1]/5x,6,8-3[8:1]/3x,2,8-5[8:1]/5x,6,8-3[8:1]/3x,2,8-5[8:1]/5x,6,8-4[8:1]/3x,2,8bx/5x,,
{16}61,,7,7,8,,6,,38,,2,2,1,,3,,
{8}4-8[8:1]/8,7,64,5,4-8[8:1]/8x,1,42,3,
{8}7-3[8:1]/1,8,1-5[8:1]/7,8,7-3[8:1]/1,8,1/7,8,
{32}E2,E3,E4,E5,E6,E7,E8,E1,E2,E3,E4,E5,E6,E7,E8,E1,D2,D3,D4,D5,D6,D7,D8,D1,D2,D3,D4,D5,D6,D7,D8,D1,
{32}2x,3x,4x,5x,6x,7x,8x,1x,2x,3x,4x,5x,6x,7x,8x,1x,2x,3x,4x,5x,6x,7x,8x,1x,2x,3x,4x,5x,6x,7x,8x,1x,2x,3x,4x,5x,6x,7x,8x,1x,2x,3x,4x,5x,6x,7x,8x,1x,2x,3x,4x,5x,6x,7x,8x,1x,2x,3x,4x,5x,6x,7x,8x,1x,
{32}2bx,3x,4x,5x,6x,7x,8x,1x,2bx,3x,4x,5x,6x,7x,8x,1x,2bx,3x,4x,5x,6x,7x,8x,1x,2bx,3x,4x,5x,6x,7x,8x,1x,2bx,3x,4x,5x,6x,7x,8x,1x,2bx,3x,4x,5x,6x,7x,8x,1x,2bx,3x,4x,5x,6x,7x,8x,1x,2bx,3x,4x,5x,6x,7x,8x,1x,
{1}2bx/A6f/E7/E6/B6,,
{8}17,2,
{16}3,4,2,5,
{8}1-6[8:1],8,1,,
{16}4,5,2,7,3,6,1,8,
{8}2b/7b,3b/6b,4b/5b,
