&title=MIR//or
&artist=Ayunda Risu (Music: Feryquitous)
&first=0.2
&des=lowbackpan
&des_5=
&lv_5=14
&inote_5=(60){4},{16},,,,,,,,,,,,,3>8[8:1],
{48},,,,,4,{16},3,{48},,,,,6<1[8:1],{16},5,{48},,,,,6,,3,,{16}4,{48},,,,,2<7[8:1],
{16},1,{48},,,,,2,{16},5,{48},,,,,7>2[8:1],{16},8,{48},,,,,7,,3,,{16}4,{48},,,,,1>4[8:1],
{16},1,{48},,,,,1/7<4[8:1],{16},7,{48},,,,,7/2<8-4[6:1],{16},3,{48},4x<6-2[6:1],{16},{48}6,{16},7-1-5[8:1],{48},8,{16},{48}1,
{16},7<2[8:1],{48},,,,,1,{16},7z3[8:1],{48},,,,,6,{16},7>3[48:5]*<5-1[48:5],{48},,,,,,,,,,,,,,,,,4b/8b,
{16},7b/3b-7-5[8:1],{48},4,,5,,3,{16},3/8,{48},1,{16},{48}1,{16},3/1-5-7[8:1],{48},2,,8,,1,{16},1/7,{48},8,{16},{48}8,
{16},2/8-4-2[8:1],{48},1,,2-6[12:1],,8,{16},2/8<4[8:1],{48},1,{16},{48}1,{16},5/8bV24[8:1],,B1f/E1/B8,,3/8b<8[4:1],,B6f/E7/B7,
,5/8-3[48:5],{48},,,,,7,,6,,{16}5-1[8:1],,{48}1>4[8:1],,4,,8,,{16}5<8[8:1],,8q5[8:1],,5>2-8-6-4[12:5],,3-1-7-5[24:7],
,1b,,,,,,,,1b/7bv1[16:1],,5/3v5[16:1],,3/7,,7/3,
,{48}7bv8[16:1],6,5,4,3v2[16:1],2,1,8,3/7v5[24:1],{16},,,,,{48}1bv6[16:1],2,3,4,5v8[16:1],6,7,8,1/5v3[16:1],{16},,,,,{48}7bv4[16:1],
8,1,2,3v1[16:1],4,5,6,7/3v6[24:1],{16},,,,,1x>4[16:1]/5x<8[16:1],,1-6[16:1]/5-2[16:1],,1b/5b,,1b/5b,
,{48}1b/5,8,7,6,5,4,3,2,8/1-5[12:1],{16},1/8-6[16:1],{48},1/2-4[16:1],{16},{48}1/8,{16},8,{48},2,{16},{48}5,,6-8-2[8:1],,{16}7/5,{48},2-7[12:1],,{16}6,
{48},4qq3[8:1],,{16}4,{48},5pp6[48:5],{16},{48}4,,4,,{16}5,{48},5,{16},{48}1v4[12:1],{16},1<6[12:1],{48},5/6>1[6:1],{16},{48}2/1,{16},1,,1,
{48},8,,{16}8qq7[12:1],{48},8/7p3[12:1],{16},{48}4/5,{16},8/1,{48},1,{16},{48}2,,1,,{16}4v1[24:1]/8bv5[24:1],{48},6/2b-4-6-8[6:1],{96},,,,,{64}1/5,2/6,3/7,4/8,{32},{16}4b/8bq1[12:11],{48},2,{16},{48}8,
{16},4>4>1[192:119],,,,,,,,,,,,,,,,{64}2/6,
3,4,5,6,7,8,1,2,3,4,5,6,7,8,1,2/6-2[24:1],3,4,5,6,7,8,1,2,3,4,5,6,7,8,1,{16}2/6b,{48},,,,,,,,,,,,,8x-2-7[8:1],,,,,,,,{16}4-2-5[8:1],
{48},8,{16},{48}5,{16},4-7-5[8:1],{48},8,{16},{48}6,{16},4,{48},8,{16},{48}2,{16},{64}4-7-5[8:1],D4,A3,D3,A2,D2,A1,D1,A8,D8,{32}A7,
{16},4-2-5[8:1],{48},2,{16},{48}8-2-7[8:1],{16},4,{48},6,{16},{48}8-5-7[8:1],{16},4,{48},2,{16},{48}8,{16},1x<7-2[8:1],{48},,,,,5<7-4[8:1],
{16},1,{48},4,{16},{48}5-2>4[8:1],{16},8,{48},2,{16},{48}5-1-4[6:1],{16},8,{48},1-6-8[6:1],{16},{48}5,{16},6,{48},1,{16},{48}3,
{16},2-8-6[8:1],,4/6-1-5[48:7],,2,{48},5,{16},{48}4,{16},8>6[6:1],{48},4/6,{16},{48}3/7,{16},2/8,{48},,,,,8,
{24},{96}8-4[128:23],1/7,2/6,5/3,{12}4h[144:35],{48},,,,,,,,,,,,,,,,,,,{16}Cf,,,,D8/B8/E8/A7,,,,B1/D2/E2/A2,{64},
{6},{24}4>1[16:1]/8<5[16:1],,4/8,,4-8[0.91##0.16]/8-4[0.91##0.16],,4b-1[24:1]/8b-5[24:1],{12},{24}4b<7[16:1]/8b>3[16:1],{12},{24}8bp5[48:11]/4bp1[48:11],{12},8b/4b,{48},,
{24}8b/4b,{48},,,,,,,,,,,,,,,,,,5/1,,5/1,,{16}1/5-1[16:1],,5/3-7[16:1],,5/4-8[48:19],,3/4z8[48:11],
,5/4,,,,,,,,8b/6b-2[16:1],,2/4-8[16:1],,6/8,,2/4,
,{48}8b/4b-1-6[8:1],1,2,3,4,5,6-2[16:1],7,4/8-4[16:1],{16},8/4,{48},7,{16},{48}8,{16},{48}8b-3-7[8:1],7,6,5,4,3,2,1,4/8-5-1[8:1],{16},8/4,{48},5,{16},{48}6/8,
{16},{48}8b-5[16:1],7,6,5-2-6[48:7],4,3,2,1,8/4-8[24:1],{16},4/8,{48},3,{16},{48}4,{16},1xh[6:1]/5x-7[24:1],,4-8[16:1],,{48}1/5b,2,3,4,5,6,4b/7,8,1,
2,3,4,5/8b,1,2,3,4/8,5/1,6/2,7/3,4/8-4[16:1],{16},3>5[8:1],{48},2/6,{16},{48}8V26[8:1],{16},3,{48},,,,,3-5[16:1],,3,,{16}4,,6/2,
{48},8,,{16}8v6<7[48:5],{48},8/1v3>2[12:1],{16},{48}2pp4[12:1],,8,,{16}8/1,{48},1,{16},{48}8,{16},7<4[48:5],{48},3/4-7[1.0833##0.4167],{16},{48}2/1,{16},7/8v3[8:1]*v5[8:1],,3>8[8:1],
{48},8,,{16}8<6-2[6:1],{48},,,,,7,{16},5,{48},1,{16},{48}8,,7,,{16}1v4[24:1]/5bv8[24:1],{48},3/7b-5-3-1[6:1],{96},,,,,{64}8/4,7/3,6/2,5/1,{32},{16}5b/1bp8[12:11],{48},7,{16},{48}1,
{16},5,{48},,,,,,,,,,,,,5,,3,,4,,2,,{16}3,{48},4,,6,,5,,7,,{16}6,,,,{48}2/5<7-4[8:1],
1,8,7,6,5,4-8[12:1],3,2,{16},5/1>5[8:1],{48},8,{16},{48}2,{16},1<5[8:1],{48},8,,1,,2,{16},1/4,{48},4-8>1[6:1],3,2,1,8,
{16},4/1-6-4[48:7],{48},2/4,{16},{48}3,{16},2-6[24:1],{48},3,{16},{48}1-7[0.91##0.16],{16},1b/2b-4[24:1],,2b/1b-5[16:1],,{48}2b/6,7,8,1,2,3,1b/4,5,6,
7,8,1,5x>2[12:1],1,5,1,5,1,5,1,5,{16},8/5-1[12:1],{48},6,7,8,1,2,{16},1/5-3[12:1],{48},8v2[48:5],{16},{48}7/2,,6/1,,{16}5/8,{48},8,{16},{48}4,
{16},5b/7b,{48},1/4,{16},{48}2/6,{16},7/5-8[24:1],{48},4/2,{16},{48}3-5b[0.91##0.16]/8>3[0.91##0.16],{16},5b/3b-7[24:1],,8b<5b[16:1]/3b-8[24:1],,8b/3b,,3b/8b>3b[8:1],
,8q6[48:5],{48},,,,,6>3[12:1],,7,,{16}8p2b[12:1],{48},,,,,2,,1,,{16}8<4[8:1],,4>8b[8:1],,8q4[2:1]*p4[2:1],,8,
,,,,,,,,,,,,,2/5q1q5V71V35b[12:11],{48},3/6V42V86>1<5[6:5],{16},{48}7/4,
{16},5/8,,,,,,,,,,,,,,,,{48}B2,
,4,,3,,5,,4,,4,,B7,,5,,6,,4,,5,,5,,B2,,4,,3,,5,,4,,4,,B7,,5,,6,,B2/B3,,5,
,5,{4},{64},,{192},{64}2,3,4,5,{32},{64}5h[64:23],{16},,,,,{64}B7,B6,{32}E6,
E
