&title=ワールドイズマイン[CPK! Remix]
&artist=ryo (supercell); かぐや(cv.夏吉ゆうこ); 月見ヤチヨ(cv.早見沙織)
&first=0
&des=世界で一番スウィングが好きなおひめさま
&lv_5=13+
&inote_5=(118)
{4},,,,
{24}3v4V25-3[24:14],,,,,,,,,,,,,,,,,,,,,,,,
{24}6v5V74-6b[24:14],,,,,,,,,,,,,,,,,,,,,,,,
{24}1h[8:1],,,,,,3h[8:1]/5,,,7,,,2h[8:1],,,,,,4h[8:1]/6,,,8,,,
{24}3h[8:1],,,1,,,8h[8:1],,,4,,,56,,,1,,,24,,,7h[8:7],,,
{24}E7,,,A6,,B6,E6,,,A5,,B5,E5,,,A4,,B4,D4,,B3,A3,,,
{24}2x,,,84,,,7-3[8:1],,,15,,3x,,,,,,,1?v1[354#8:3],,,,,,
{24}5xb,,,3,,4,2h[8:1],,,8,,,5-3[12:1]/6,,,7-5b[12:1],,,,,,,,,
{24}1,,,4,,2,6h[8:1],,,5,,,7/4-6[12:1],,,2-4b[12:1],,,,,,,,,
{24}8,,,5,,6,4h[8:1],,,8,,,2-8[12:1]/7,,,5-7b[12:1],,,,,,,,,
{24}1x^4[8:1],,,,,,1x^6[8:1]/7x,,,,,,1xs5[16:3]/3x,,,,,,5xqq4[16:3],,,,,,
{24}E7,,,,,,8h[8:1],,,4,,,5-2[9:1]/6,,,7-5b[12:1],,,,,,,,,
{24}1,,,4,,2,7h[8:1],,,5,,,6/4-7[9:1],,,2-4b[12:1],,,,,,,,,
{24}8,,,4,,6,2h[8:1],,,5,,,3-5[12:1]/7,,,8-6b[12:1],,,,,,,,,
{24}3h,,5h,,,,6h,,4h,,,,2h,,4h,,,7x,7xh,,5xh,,,,
{24}E1h[12:1]/3v4b[8:1],,,,,,3,,,,,,2h[24:6]/6-4b[12:1],,,,,,6,,,,,,
{24}1h[24:3],,,3,,,2,,24,,,,3v4-6b[24:5],,,,,,,,,,,,
{24}8h[6:1],,,,,,B2,,B6,,,,7h[24:6]/3-5[12:1],,,,,,3,,,,,,
{24}6h[8:1],,,8,,,7,,57,,,,6v5-3[24:5],,,,,,,,,,,,
{24}E3,,E7,E1h[64:1],,,,,7,5,,5,6,,6,2,,2,4,,4,3h[8:1],,,
{24}5,,,7h[4:1],,,6,,,1h[4:1],,,4-6[8:1]*v3[8:1],,,,,,,,,,,,
{24}7V52V46[16:7],,,,,,5x,,,2x,,,4x,,,1x,,,3xh[8:1],,,E7,,,
{24},,,3h[8:1]/5h[24:3],,,,,4h[24:3]/6h[8:1],,,,7-4[12:1]*V52[16:3]/5h[8:1],,,,,,,,,,,,
{24}1x>7b[8:13],,,,,,,,,,,,5h[24:5],,,,,,,,,,,,
{24}3h[24:3],,,,,,,,4,,,,4,,,,,,,,,,,,
{24}8x^7^6^5^4^3^2[8:13],,,,,,,,,,,,4h[24:5],,,,,,,,,,,,
{24}6h[24:3],,,,,,,,5,,,,5,,,,,,C,,,,,,
{24}1h[4:3],,,,,,3,,,,,,7,,,,,,5-1[16:9],,,,,,
{24}7,,,,,,6,,,,,,5,,,,,,4-7[16:4],,,,,,
{24}3,,,,,,5-2[32:5],,,,,,8-4[32:3],,,,,,,,,{48}A2,E2,E3,,,,
{24},,,7h[8:1]/5h[8:1],,,,,3h[8:1]/4h[8:1],,,,5h[8:1]/1,,,,,,{32}1b^6b[8:1],2x,3x,4x,,,,,
{24}1b/4q8[8:1],,,,,2,4,,,3,,,8^5[8:1]/5,,,7,,,4,3,2,1,,,
{24}2/4^1b[8:1],,,3,,,4/5-1b[8:1],,,6,,,5/7<4b[8:1],,,,,,78,,,,,,
{24}3h[4:1],,,2,,,4h[4:1],,,1,,,5-2[8:1],,,8/7-5b[12:1],,,,,,,,,
{24}1-5b[12:1],,5V38b[16:3],,,1,,,7,7,,,{16}6V84b[16:3],,,6?V84[472#4:3],{24},,,,,,
{24}2-5[8:1],,,4,3,4,2b,,,,,,7h[8:1],,,5h[12:1],,6,4,,5,3,,4,
{24}1^4[8:1],,,2,,,1/8-4[8:1],,,7,,,8/6<1[8:1],,,,,,6/5v3[8:1]*p1[8:1],,,,,,
{24}5b,,,,,,8<3[24:5],,,6,,6h[24:4],,,,,,,7x,6x,5x,4x/1x,,,
{24}3,,3,4,,4,2,,2,5,,5,4,,4,8,,8,7h[8:8]/5,,,,,,
{24}E3/A3,,E4,A4,,B4,E5,,B5,A5,,B6,E7/A6,,D8,E8,,A8,E1,,A1,E2,,,
{24}3x,,,51,,,6-2[8:1],,,48,,2x,,,,,,1^4[12:1],8^5b[12:1],,3,6,,,
{24},,,,,,2h[8:1],,,8,,,5-2[8:1]/6,,,7-4b[8:1],,,,,,,,,
{24}1,,,4,,2,7h[8:1],,,5,,,8/4-7[8:1],,,2-5b[8:1],,,,,,,,,
{24}8,,,5,,7,3h[8:1],,,6,,,4v2[8:1]/2,,,5v7b[8:1],,,,,,,,,
{24}1x^4[8:1],,,,,,1x/7x^4[8:1],,,,,,7x/4xp5-8[12:4],,,,,,A2,,,A3,,,
{24},,,,,,3h[4:3],,,,,,4,,,,,,5,,,,,,
{24}6h[4:4],,,,,,5,,,,,,7,,,,,,5,,,,,,
{24}4h[4:3],,,,,,6,,,,,,5,,,,,,5,,,,,,
{24}3h,,5h,,,,7h,,5h,,,,2h,,4v2^7b[24:7],,,6xh[64:1],6x,,4xh,,,,
{24},,,,,,56,,,7,,,4/3-5b[12:1],,,2,,,3/8h[4:1],,,,,,
{24}5,,,4/6,,,3,,4,2,,,3-5v6b[24:5],,,,,,,,,,,,
{24}8h[24:4],,,,,,B3,,B7,,,,6-4[12:1]/1,,7,8,,6x,,,,3,,4,
{24}2h[8:1],,,8,,8xh[8:3],,,2x,,,6x-1[8:1],,,4x-8[8:1],,,,,,,,,,
{48},,,,,E7/B7/B6,,,,,,,{24}3xb,,4xb,1xb,,6xb,,,,3h[8:1],,,1,,1,5,,5,
{24}6h[8:1],,,8,,8,4,,4,3V52-6b[24:8],,3,1h[8:1],,,,,,,,,,,,
{24}7-4-8-3^6[24:12],,,,,,4x,,,8x,,,3x,,,1x,,,3xh[8:1],,,E7,,,
{24},,,2h[8:1]/4h[24:3],,,,,3h[24:3]/5h[8:1],,,,6-4-2[24:3]/4-8[24:3],,,,,,,,,,,,
{24}1x>8b[8:13],,,,,,,,,,,,E6h[24:5],,,,,,,,,B6/E7,,,
{24}E4h[24:3],,,,,,,,B3,,,,E3,,,,,,,,,,,,
{24}8x^7^6^5^4^3^2^1[8:13]/Ch[24:5],,,,,,,,,,,,E4h[24:5],,,,,,,,,B3/E3,,,
{24}E6h[24:3],,,,,,,,B6,,,,E7,,,,,,C,,,,,,
{24}1h[4:3],,,,,,3,,,,,,7,,,,,,B5h[4:1]/A5h[4:4]/E5h[4:2]/E6h[4:3],,,,,,
{24}8,,,,,,2,,,,,,7,,,,,,E4h[4:1]/A3h[4:2],,,,,,
{24}1,,,,,,A7h[4:2]/E7h[4:1],,,,,,5,,,,,,Ch[8:1],,,{64}B8/B1/E1,,,,,,,,
{24},,,5hb[8:1]/3hb[8:1],,,,,7hb[8:1]/4hb[8:1],,,,1hb[8:1]/5b,,,,,,{32}2x/5bp1b[8:1],3x/6x,4x/7x,,,,,,
{24}8^3[8:1]/5b,,,,,6,8,,,7,,,8p4[8:1]/4,,,5,,,{24}48,3,2,{24}1,,,
{24}2x/4xV26b[16:3],,,3,,,4x/5x-1-7b[16:3],,,7,,,5x/7x>4b[16:3],,,,,,5,,,,,,
{24}7h[4:1],,,6,,,1h[4:1],,,4,,,8-5[8:1],,,3-8b[8:1]/5,,,,,,,,,
{24}4^7b[8:1],,,,,1x,4x^1b[8:1],,,3,,,{16}7x-3-5b[16:3]/4x,,,7?-3-5[472#4:3],{24},,,,,,
{24}8-3[8:1],,6x,1,7,2,8b,,,4h[8:1],,,5^8[8:1],,3,7,,4,5,,,3,,3,
{24}1xV37[16:3],,,2,,,1x/8x-4-6[16:3],,,6,,,6x>1[16:3]/8x,,,,,,7v4[8:1]*p3[8:1],,,,,,
{24}7b,,,,,,1^4[8:1],,,3,,,5^8[8:1]/1,,,7,,,1x/5x,2x,3x,4x,,,
{24}7,,4,6,,5,8O,,3,4,,1,5,,3,7,,1,4/2h[8:8],,,,,,
{24}E7/A6,,D6,E6,,A5,E5/D5,,A4,E4,,D4,D3/E3/A3,,E2,D2,,A1,E1/A8/D1,,E8,D8,,,
{24}6x,,,48,,,2-6[8:1],,,5/1^4qq4[88.5#32:7],,7x^4pp4b[24:7],,,,,,,,,,,,,
{24}A4f/E5/E4,,,,,,,,,,,,,,,,,,,,,,,,
{24},,,,,,,,,,,,,,,,,,,,,,,,
{24},,,,,,,,,,,,,,,,,,,,,,,,
{24},,,,,,,,,,,,,,,,,,,,,,,,
E
