&title=Crackpot Evangelist
&artist=BEMANI Sound Team "ZAQUVA"
&first=-1.69
&des=Inhuman Chart Team "Ozi"
&lv_5=14+
&inote_5=(200)
{4},,,,,,,,
{8}2h[4:1],4,5,3h[4:1],5,6,4h[8:1],7,
{8}8h[8:3],5,4,3,7h[8:3],2,3,4,
{8}6,3,8V26[4:1],2,8,,,
{16}3,4,5<8[8:1],,6,,4,3,2,,1,,7,,5,,3,,
{8}2h[4:1],1,8,7h[4:1],6,5,4,3,
{8}2h[4:1],4,5,6,7h[4:1],8,1,2,
{8}8,4,8V26[4:1],3,8,,,
{16}4,3,2h[8:1]/5h[8:1],,,6h[8:1]/3h[8:1],,,7h[16:1]/4h[16:1],,8,5,8h[4:1],,3,,2,,
{8}1>4[8:1],8,7,6<1[8:1],5,4,3<5[8:1],2,
{8}1>4[8:1],8,7,6,5<8[8:1],4,3,2,
{8}1V38[4:1],8,7,6,5V74[4:1],4,3,2,
{8}1-3[8:1],8,7-1[8:1],6,5-7[8:1],4,3,2,
{8}1/8v5[8:1],1,18,1,1/4v7[8:1],1,1h[8:1]/4,,
{8}2/6-3[8:1],2,26,2,2/4<7[8:1],2,2h[8:1]/4,,
{16}1,8,1,7,1,6,1,5,2,4,2,3,2,1,2,8,
{16}2b,3,45,6,7,,1,2,3/4-1[8:1],5,6,7,8b/4b,,,,
{16}7b,,,,7,6,5h[1:0]/3,,4h[1:0]/2h[1:0],,3h[1:0]/1h[1:0],,3h[16:2]/1h[16:2],,,,
{16}2,,2,3,4h[1:0]/6,,3,4,5h[1:0]/7,,6h[1:0]/8h[1:0],,6h[8:1]/8h[8:1],,,,
{16}7b,,,,7,6,5h[1:0]/3,,4h[1:0]/2h[1:0],,3h[1:0]/1h[1:0],,3h[16:2]/1h[16:2],,,,
{16}2,,2,3,4h[1:0]/6,,3,4,{12}5h[1:0]/7,6h[1:0],5h[1:0],1h[12:2]/4h[12:2],,,
{16}2b,,,,2,3,4h[1:0]/6,,5h[1:0]/7h[1:0],,6h[1:0]/8h[1:0],,6h[16:2]/8h[16:2],,,,
{16}7,,7,6,5h[1:0]/3,,6,5,4h[1:0]/2,,3h[1:0]/1h[1:0],,3h[8:1]/1h[8:1],,,,
{16}2,,3,,5,,6h[1:0]/4h[1:0],5h[1:0]/3h[1:0],4h[1:0]/2h[1:0],,
{16}5,,6,,7h[1:0]/5h[1:0],6h[1:0]/4h[1:0],5h[1:0]/3h[8:4],,8,,6,,4,,2,,8,,6,4,5,5,
{16}5b,,4,3,2,,1,5,8,4,8,4,1,5,1,5,
{16}1h[1:0],2h[1:0],5,6,2h[1:0],3h[1:0],7h[8:1],,3,4,7,8,{32}5b,4,3,2,{16}8h[16:1],,
{16}1,,6,,5,,4h[8:1],,1,,2,,3,4,3,2,
{16}3,,6,5,6,7,6,,1-5[8:1],,1,8,1h[8:1],,,,
{16}26,,3,4,5,,6,5,6,7,6,,3,4,2,4,
{16}1,,7q4[8:1],8,7,6,7h[8:1],,,,6,3,5,3,4,,
{16}2,,8b,2,4,2,5,2,6,,1b,7,5,7,4,7,
{16}3h[4:1],,1b,,8,,7,6,5h[8:4]/3,,1,,7,,4,,
{16}1b,,,,18,,2,3,8b/4,,7,6,1b/5,,2,3,
{16}4/7b,6,5,,26,,17,8,8,,1h[16:1]/7h[16:1],,,2h[16:1]/6h[16:1],,,
{16}3b/5b,,,,8,,3,4,5/1b,,6,5,4/8b,,2,3,
{16}4/6b,7,8,,1h[16:1],,2,5,3,5,4,5,{32}6b,7,8,1,2,3,4,,
{16}7,,7,1,,1,3,,2,,2,8,,8,6,,
{16}1,,8<4[8:1],,4pp8[8:3],,{32}4b,3,2,1,{16},,,,3h[8:1],,,,
{16}1b,1,2,2,3,3,4,4,5,5,6,6,7,7,8,8,
{1}1h[2:1],
{16}1V75[4:6],,,,2,,,,3,,,,4,,,,
{16}3,,3,,3,,,,4V68[1:2],,,4,,,3,,
{16}2,,,,1,,,,2,,,,3,,,,
{16}2,,2,,2,,,,1V74[1:2],,,2,,,2,3,
{16}4,,,,3,,,,2,,,,1,,,,
{16}8,,1,,2,,,,3<8[1:1],,,2,,,1,,
{16}8h[8:1],,,,1h[8:1],,,,2h[8:1],,,,3h[8:1],,,,
{4}2h[4:1],4h[4:1],6h[4:1],8b,
{16}1,,,2,4,,4,3,5h[8:1],,6h[8:1],,7h[8:1],,8h[8:1],,
{16}1,,3,4,5,,{8}7V15[4:1],1,5-3[8:1],,,
{16}2h[16:3],,,7,,,{8}8p5[8:2]*q3[8:2],17,8,,,
{16}1,,,1,{8}8qq4[8:3],1,2h[8:1],,2h[8:1],,
{16}3,,3,4,5,,6,,{8}8/7p8[8:1],1,,,
{16}2,,2,3,45,6,7,,{8}2-5[8:1]/8-5[8:1],5-8[8:1],,,
{16}2h[16:1],,1h[16:1],,3,3,8,8,2,3,47,6,51,2,38,7,
{8}6h[16:1]/2-6[8:1],,2b/8w4[8:1],,8b,,,,||58
{16}18,,8v3[8:1],1,,1v6[8:1],8,,1h[16:1],,,4-7[8:1],,7,8,1,
{16}2,,3-6[8:1],8,,8-3[8:1],3,,8h[16:1],,,5-2[8:1],,2,1,8,
{16}7,,6-3[8:1],1,,1-4[8:1],6,,1h[16:1],,,2,,1,8,7,
{16}6/2b,3,4,5/1b,8,7,6/1b,2,3,4/8b,7,6,{32}4,5,4,,{16}5,3,
{16}34,,5v2[8:1],4,,4v7[8:1],5,,4h[16:1],,,1-6[8:1],,6,5,4,
{16}3,,2-7[8:1],5,,5v2[8:1],2,,5h[16:1],,,8v3[8:1],,3,4,5,
{16}6,,7-2[8:1],4,,4v1[8:1],7,,4h[16:1],,,3,,4,5,6,
{16}7/3b,2,1,8/4b,5,6,7/4b,3,2,1/5b,6,7,{32}1,8,1,,{16}8,2,
{12}8b<5[4:1],,2,,4<7[4:1],3,2,,8<5[4:1],,2,3,4<7[4:1],,2,,8<5[4:1],1,2b,3,4<7[4:1],
{12},2,1,8b<5[4:1],,2,,4,3,{16}2,1,8,4,5,6,7,8,
{16}4b,3,2,1/4b,5,6,7/3b,2,1,8/4b,5,6,{32}74,3,2,,{16}8,1,
{16}18,,8v3[8:1],1,,1v6[8:1],8,,1,1,,4v7[8:1],,7,8,1,
{16}2,,3v6[8:1],8,,8v3[8:1],3,,8,8,,5v2[8:1],,2,1,8,
{16}7,,6v3[8:1],1,,1v4[8:1],6,,1,1,,2,,1,8,7,
{16}6/3b,2,1,8/4b,5,6,7/4b,3pp2[16:3],2,1/5h[8:1],,,,,,,
{16}1b/8,,7,1/7,,2,2/8,,1>4[8:1]*>4[8:1],1h[8:1],,8b,,,7,6,
{16}5b,,3,3/5,,6,4/6,,5<8[8:1]*<8[8:1],5h[8:1],,4,3b,2,1,,
{16}1b,,7,7/8,,2,2/8,,1>4[8:1]*>4[8:1],1h[8:1],,8b,,,7,6,
{16}5/2b,3,4,5/1b,8,7,6/1b,2,3,4/8b,7,6,{32}4b,5,4,,{16}5,3,
{16}3/4b,,6,6/4,,3,3b/5,,4>1[8:1]*>1[8:1],4h[8:1],,5b,,,6,7,
{16}8b,,2,2/8,,7,7/1,,8<5[8:1]*<5[8:1],8h[8:1],,1,2b,3,4,,
{16}4b,,6/5,6,,3,3/5,,4>1[8:1]*>1[8:1],4h[8:1],,5b,,,5,6,
{16}7b,1,8,2b,6,5,7b,3,4,2b,6,4,8b,,,,
{12}1/8b<5[4:1]*<5[4:1],,2,,4b<7[4:1]*<7[4:1],3,2,,8b<5[4:1]*<5[4:1],,2,3,4b<7[4:1]*<7[4:1],,2,,8b<5[4:1]*<5[4:1],1,2b,3,4b<7[4:1]*<7[4:1],
{12},2,1,8b<5[4:1]*<5[4:1],,2,,4b,3,2,1,8,4,5,6,
{12}7b/4h[1:0],8,1,2b/7h[1:0],3,4,5h[8:3]/1b,,,{16}7,8,1,2,
{16}3b,,6,6/4,,3,3/5,,4<7[8:1]*<7[8:1],4h[8:1],,3b,,3,2,1,
{16}8b,,6,6/8,,1,1/7,,8<5[8:1]*<5[8:1],8h[8:1],,1b,,1,2,3,
{16}4b,,6/4,6,,3,3b/5,,4>1[8:1]*>1[8:1],4h[8:1],,5b,,6,7,8,
{16}1b,,82,82,,7/3,6/2,5/1,8,7,6,5,48,37,26,15,
{4}4h[4:7]/8b,8,8,{12}8,,8,{16}8,,8,,8,,,,8p4[8:1],,1,,8b,,,,
{32}6,,7,,8,,,,
{32}2,,2,,,,2,,
{32}8b,1,8,,2,,4b,3,
{32}4,,3,,5,,,,
{32}1h[1:0]/6h[1:0],,,,8b,7,8,,
{32}6,,6,,,,1b,2,
{32}3h[1:0]/5h[1:0],,,,3,,6,,
{32}3,,7,,3,,8,,
{32}4b,5,4,,6,,8b,7,
{32}8,,6,,1,,6,,
{32}2,,3h[32:1]/5h[32:1],,,,6,,
{32}4b-8[8:1]*-8[8:1],5,4,,6b,3,6,,4b/5,
E
