&title=Wind Blows
&artist=Eris
&first=0.05
&des=Nostalgia Op.1 No.7
&lv_5=13+
&inote_5=(76)
{1},,,,,,
{8},
{48}3,2,1,8,7,6,
{8}5<4[8:14],,,,,,,7h[96:1],,{16},8h[96:1],
{1},{8}1h[96:1]`6<5[8:5],,,2h[96:1],3h[96:1],,,,
7p2[8:3]`1p8[8:5],,,,,,,,1q8[8:2]`2-6[8:2]*-6[8:2],,,,,
5,4,3,1b/6bpp4[16:3],
{16},8,{32}5/6,,,3,,,1,,2V84[16:3]/3,,,,,,2,,4/2,,,5,,,8,,5/6>8[16:4],,,,
,,,,6,,,7,,,5,,4q5[16:3],,,,,,,,,,2,,1,,2,,6b/3bqq5[16:3],,,,,,1,,4/3,,,6,,,8,,7V15[16:3]/6,,,,,,7,,5/7,,,4,,,1,,4/3<1[16:5]*q4[16:5],,,,,,,,,,,,,,,,,,,,
3,,,,2,,,,1,,,,3bqq5[16:3]/8b,,4/5,,,,3/8,,3,,,5,,,7,,5/6V84[16:3],,,,,,
4/6,,6,,,4,,,2,,3<1[16:4]/5,,4/2,,,,4,,3,,,1,,,2,,3q5[16:3],,,,,,,,,,
6,,7,,7,,8pp5[16:3]/5,,3/4,,,,8,,8,,,6,,,7,,4V62[16:3]/6,,,,,,
3/4,,4,,,2,,,1,,3p5[16:3]/8-5[16:3],,4/5,,,,4/5,,,,,,,,,,
{48}7,8,1,2,3,4,5h[16:4]/6,7,8,1,2,3,4h[16:2],,,,,,,,,,,,
2b/7b,3,4,5,6,7,2,3,4,5,6,7,2b`1,,,,,,2`1,,,,,,
7,6,5,4,3,2,7,6,5,4,3,2,7`8,,,,,,7`8,,,,,,
{32}2/5,,,5,3,,5,,2`1,,,,2`1,,,,7/4,,,4,6,,4,,7`8,,,,7`8,,,,
3/4,,,5,,,3,,1,,,,1,,,,5/6,,,4,,,6,,8,,,,8,,,,
3/4,,,5,,,3,,1,,,,1,,,,5/6,,,4,,,6,,8,,,,8,,,,
3/4,,,5,,,3,,,,,,1,,,,5/6,,,4,,,6,,,,,,8,,,,
3/4,,,4,,,3,,,,,,1,,,,5/6,,,5,,,6,,,,,,8,,,,
2h[32:3],,,3h[32:3],,,4,,,,,,,,,,
7h[32:3],,,6h[32:3],,,5,,,,,,,,,,
1h[32:3],,,2h[32:3],,,3,,,,,,,,,,
8h[32:3],,,7h[32:3],,,6,,,,,,,,,,
{48}3b/6b,7,8,1,2,3,6,7,8,1,2,3,8,,,,,,8,,,,,,
3,2,1,8,7,6,3,2,1,8,7,6,1,,,,,,1,,,,,,
{32}2/5,,3,,4,,3,,7`8,,,5,,,4,,7,,5,,6,,5,,2`1,,,5,,,4,,
3/4,,,5,,,3,,8,,,,8,,,,5/6,,,4,,,6,,1,,,,1,,,,
7h[8:2],,4,,5,,4,,1,,,3/4,,,2,,
2h[8:2],,5,,4,,5,,8,,,6/5,,,7,,
{48}6b/3b,2,1,8,7,6,3,2,1,8,7,6,1,,,,,,1,,,,,,
6,7,8,1,2,3,6,7,8,1,2,3,8,,,,,,8,,,,,,
{32}7/4,,6,,5,,6,,2`1,,,4,,,5,,2,,4,,3,,4,,7`8,,,4,,,5,,
2h[8:2],,5,,4,,5,,8,,,6/5,,,7,,
7h[8:2],,4,,5,,4,,1,,,3/4,,,2,,
1h[8:2]/8p1[16:3],,6,,5,,6,,8,,,3,,,2,,
8h[8:2]/1>8[16:16],,3,,4,,3,,1,,,6>1[16:36],,,7,,
