&title=Fracture Ray
&artist=削除
&first=-1.05
&des=磷化锆
&lv_5=14+
&des_5=磷化锆
&inote_5=
(100){4},,,,{1}5h[1:10]/4h[64:127],
,{64}3b,
2,{32}1h[32:15],{4},,,{16},,,{1}6h[4:3],
7V13[8:5],
4h[4:3],
3q5V71>1[2:3],
{2},,2h[4:1],
{4}4,6,
{2}8h[8:3],{4}2,3,
{96},D6f/D5f,A6f/A4f,D7f/D4f,A7f/A3f,D8f/D3f,A8f/A2f,D1f/D2f,{12}1bxV73[3:2],,,,,{2}6-2[8:1],
5V37[4:3],4-8[8:1],
3V15[4:3],2-6[8:1],
{4}1b-5b[1.95##0.15],1?-5[1.35##0.15],1?-5[0.75##0.15]*-5[0.75##0.15],1bh[16:1],
{8}8x<5[8:1],5xV71[8:1],{16}8/4<3b[4:1],3,{8}3,{4}4b,{48}7,8,1,2,{96}3,4,,,{32}5,6,7,8,
{8}1/5x>6[16:3],3h[8:3],{4}5b,{8}5<3[8:1],4-8b[16:1],5b/3,4bx,
1xz5V37[4:1],3x-7b[0.708##0.186],{4}1b/4h[8:1],2<3b[16:3],8s4[16:3]/2z6[16:3],
8x/2x,{32}3,7,3,7,{16}3,6,1-5b[16:1],5-2[16:1],2-6[16:1],7h[4:1],{4}1b<1[4:1],
1bx,{8}8V24V68[4:1],1,{4}8x/3h[4:1],{64}D4,A4,D5,A5,D6,A6,D7,A7,D8,A8,D1,A1,D2`6x,A2,{32}D3,
{4}6h[4:1]/3xV15-7-3b[4:1],3x,1<4[4:1],{16}1/4<8[48:5],3,2,1,
{8}8x,1x,{4}3bh[4:1]/7x>3[4:1],7x>6b[4:1],7bx,
{8}7>2<7[32:7],6>3b[32:3],,,Ch[16:3],{16},,,,1,1,
{32}8x-4[16:1],7,{16}6,{32}2x-6b[16:1],3,{16}4,{8}8,2,{16}7>1[16:1],1>3[16:1],3<5[16:1],5<7[16:1],{8}7x<7[4:1],{16}4,3x,
{4}2xh[8:1],{16}4-8[16:1],3,{8}2h[8:1],{16}4b,3x,4x>8[8:1],7,6/4x,3,{8}4x/2x,
3bh[8:1],5-1b[16:1],{16}3/6,7,{8}5/8x-4b[16:1],{16}7/2,1,{8}8/6,{16}5h[16:1],3b,6,6,
{6}1/7h[6:1],{12}4,6/3-7[16:1],5/2,1/4,{8}3/8>6[6:1],{16}1,2,{4}3/8x,
{64}7bh[8:1]/3xh[8:1],,,,,,,,,4x,5x,6x,{48}7x,8x,1x,{16}2xh[16:1],6,{32}7,4,7,4,{24}6,5,7,4,5,3,{64}6h[8:1]/4h[16:1],,,,,D4,A3,D3,,D7,A7,D8,A8,D1,,,{16}3xh[4:1],
1,2,4,{64}5x,,,5x,{256},,,,,,,,,3,{64},,{384},,,,,{48}6x,{96},,,6x,{384},,,,,,,,,,,,,,,,4-8[16:1],,,,,,,,,,,,,5,,,,,,,,,,,,,,,{96}4,{384},,,,,,,,,5,,,,,,,,,,,,,,3,,,,,,,,,,,,,,{128}4,{384},,,,,,,,,,,3,,,,,,,,,,,,,{8}4bx,2bh[8:1],
8x-4[16:1],{16}2x,3,8/4,3,2-7b[8:1],3,{8}4h[8:1],2-5b[8:1],6h[8:1],2,
{32}7x,8,4x,3,6x,7,3x,2,{16}5-7[16:1],1-3b[16:1],6-8[16:1],2-4b[16:1],,,,,{4}Cfh[4:1],
,,,,,,,1V75pp2[4:7],
,,,,,,,8z4[48:47],
,3b,,4V68[4:3],
,3p1q4[2:1],,,8bh[4:1],
1-5[4:1],5V31[2:1],7-5-3<6[4:3],
,,{2}Ch[8:3],
{1}7q1<6V82V86<2[4:11]`3q5>2V46V42>6b[4:11],
{4},,,,,,,,,B3`B7,
{2}C,
{64}1b/5b<8V64[4:1],2,3,4h[64:5],,,,,,,,,,,,,{8}5/1,4,{64}3b<2[16:3],2,1,8h[64:5],,,,,,,,,,,,,{4}1h[8:3],
{64}3bx>5b[16:3],4x,5x,6xh[64:5],,,,,,,,,,,,,{8}3/6V82[8:1],4h[64:23],{4}6bx,{64}5b,6,7,8,{16}1,{8}4xh[8:1],
{48}2,1,8,7,6,5,3,2,1,8,7,6,{4}1x/5<8[16:1],{64}5/1b-7v6>5[4:1],2,,3,{16}4h[16:3],,,{4}1>4b[16:1],
{8}1b,7x,{64}1-5[16:1],8,7,6,5,4,3,2,{8}1,{64}5b/1b,6,7,8h[64:9],,,,,,,,,{16}3,{8}6bqq6[8:1]/2bqq2[8:1],3h[16:1]/7h[16:1],
{4}6bx/2bx,{64}6bx>8[16:3],7,8,1h[64:5],,,,,,,,,,,,,{4}7h[4:1],{48}D7,A6/D6,A5,D5/A4,D4,A3/D3,A2,D2/A1,D1,A8/D8,A7,D7/A6,
{4}5xV71<6[4:1],{16}5/1,2,3,4,{64}3b,2,1,8h[64:13],,,,,,,,,,,,,{16}4,5,{8}1x/6x,
{48}8x-4[12:1],1x,2x,3x,4x,5x,8x,1x,2x,3x,4x,5xh[4:1],{4}8b,{64}4b-6v7>8[4:1],3,2,1,,,,,,,,,,,,,{4}4x/1>4V28b[4:1],
{8}1bx,1-5[16:1],{64}7b,6,5,4h[64:5],,,,,{8}1x,4h[16:3]/6xh[16:3],{16},,,,B5/B6/E6,A1/B1/E2/D2,
{4}Cf,{8}7,{32}5,,,4,,,,,{8}3,,4,
{4}5,4/6,{8}3/7,2/8,{4}1bh[8:1],
{16}7-3[16:1],1-5[16:1],8-4[16:1],2-6[16:1],7bx,1bx,8bx,2bx,7>1[16:1],1>3[16:1],3<5[16:1],5<7[16:1],{4}7x,
{16}1h[16:1],{48}2,8,2,{16}8,3,7<4[16:1],2,1-5[16:1],8-4[16:1],7x,2x,1,8,{8}3xh[8:1],7bh[8:1],
{16}2x-6[16:1],8-4[16:1],{32}1x,7,1,7,{16}2,8,{8}3xh[8:1],{16}7-1[16:1],{32}5,{96}6,5,,{48}6,5,6,3,,,{16}7,{48}2,3,4,{16}8b,1b,
{8}6/2h[8:1],{24}5,4,5,{12}3/6,2/5,1/4,{16}1x-5[16:1],{64}4,5,{32}6,{16}7x,{32}3,2,{8}1bx,7bh[8:1],
{64}B8,B7,B6,B5,B4,B3,B2,B1,D1/A8,D8/A7,D7/A6,D6/A5,D5/A4,D4/A3,D3/A2,D2/A1,{16}8x,6x,4x,2x,{20}8-4[20:1],7,6,{40}4,3,2,1,{4}8/5h[8:1],
{16}2-5[16:1],7-4[16:1],1-6[16:1],8-3[16:1],2bx,7bx,1bx,8bx,{28}5x,5x,1,4x,4x,8,3,7xh[8:1],{56},,,,,{8}2bh[8:1],
{48}8V24V68[4:1],1,2,3,4,5,8,1,2,3,4,5,{8}8x,{16}1x,2x,{48}3h[48:5],,,,,7,6/2,5/1,{12}4/8h[12:1],{48}4,,,8,{96},{32}4,8,5,1,6,
2b,7,3,6,4,8,3,7,2b,6,4,7,1,5,2,6,4b,8,3,6,{16}2b/5,1h[16:3]/5bh[16:3],{64},,,,,,,,,,,,,,,,5bV31p7b[16:13]`1bV75p3[16:13],
6/2,7/3,8/4,{16}5/1,,,,,,,,,,,,,,,{1}A7/A3/B7/B3`Cf,
E
