&title=Inverted World
&artist=ARForest
&first=-0.05
&des=Rainmaker
&lv_5=14
&des_5=Rainmaker
&inote_5=
(180){4}Cf/3q6[2:3],,,,,,,,{1}7q2[2:3],
,4pp8[2:3],
{4},,,,1pp5[2:3],
,,7xh[1:1],
,,,,5b/4b,
{8}3,4/2>6[8:3],,6,{4}6p1[8:3],
{8},8,{4}8,7/2,4/5,
7qq4[4:3],{8}3,3,,4,{4}4<8[8:3],
{8}1,2,{4}3h[4:1],1h[4:1],8h[4:1],
6,{8}6,5/7<3[8:3],,3,{4}3q8[8:3],
{8},1,{4}1,2/7,5/4,
2pp5[4:3],{8}6,6,,7h[8:5],{16},,,,,,3,
4,5,6,7,8,1,2,3,4,8,7,6,5,
{4}3b/4-8[8:1],4/2,{8}1,8,7/2,6/2,
5,4,6/3,2/6,7,1,8/2,7/2,
7/3,4,6/2,5,3,4,1,7/2,
6,7/5,3,4/2,5/1,2,6/3,7/2,
{4}8b/1-5[8:1],1,{8}6,5,8/4,7/5,
6,2,7/1,2/6,3,4,5/2,2/6,
1,8,5/7,{16}6,5,7,8,6,1,5,2,4,3,
{8}5,6/4b,3,2/4b,7,8/6b,{16}1,8,2,7,
{4}1b-5[8:1],1,{8}6>3[8:1],5,6,2,
1-5[8:1],4,1,6,7<4[8:1],5,7,3,
1-5[8:1],4,1,6,8<5[8:1],1,2,3,
4>1[8:1],5,6,7,8,1,2,3,
{4}4b/8-4[8:1],8,{8}3<6[8:1],4,3,7,
8-4[8:1],5,8,3,2>5[8:1],4,2,6b,
8x-4[8:1],1,8,2b-5[8:1],6,2,7b,4,
3b/8x,4,6b/2x,5,8b/1x,2b,{16}8x,7x,6x,5x,
{4}4x/2b,{16}8,4,{8}7,8/1,{16}1,5,{8}2,8/1,
{16}6,5,7,5,{8}8,1,{16}2/7,3,4,5,6,7,8,1,
{8}2/6,{16}3,4,2,4,{8}1,8/2,{16}7,5,{8}6,5/4,
{16}3,4,2,1,8,7,6,5,{8}4/8,7,{16}6,5,6,5,
{4}7,{16}1,5,{8}2,1/8,{16}8,4,{8}7,1/8,
{16}3,4,2,4,{8}1,8,{16}7/2,6,5,4,3,2,1,8,
{8}7/3,{16}6,5,7,5,{8}8,1/7,{16}2,4,{8}3,4/5,
{16}6,5,7,8,1,2,3,4,{8}5/1,2,{16}3,7,4,6,
{4}5b<8[8:1],{8}4,3,2-6[8:1],{16}3x,8,{8}2,7,
{16}6x,5,7-1[8:1],5,{8}8,2x,{16}3,4,5,6,7,8,1,2,
{8}6/3>8[8:1],4x,5,6,7x>2[8:1],{16}6,5,{8}7,3,
4/8,{16}6,5,{8}7,1,{16}2,6,3,5,2,8,3,7,
{4}4q8[8:1],{8}2,3<6[8:1],7,3,8,7,
{16}6,5,{8}8,3,4,{16}1/5,2,3,4,5,6,7,8,
{8}1/5,{16}6,5,{8}7,3,4/2,{16}8,1,{8}7,5,
{16}6,5,8,1,{8}7,2,{16}7/3,6,5,4,3,2,1,8,
{1}7bqq3<2b[2:7]`3bqq7>6[2:7],
,,,{16}3,
,,4,,,{8}5,{16}6,5,{8}6,{4}4/7,
{16}6/3,,,5,,,{8}2,4,3,5,4,
{16}8,7,6,5,1,2,3,4,1,8,7,6,4,3,2,1,
5,6,7,8,2,3,4,5,8,7,6,5,8,1,2,3,
{4}8x/4x,6/5,{8}4/3,{16}1,8,{8}1,7,
{4}6/2,4/3,{8}6/5,{16}8,1,{8}8,2,
{16}7x/3x,,,6,{8}5,{16}7,8,{8}7,1,7/2,3,
6/4,{16}7,5,{8}8,1,{16}2/6,5,4,3,2,1,8,7,
{8}2b/6x,3,7/4,6,5/3,4,8/5,7,
{16}1b,8,1,8,2,7,2,7,3,6,3,6,4,5,4,5,
2b,4,3,4,1,4,3,4,1b,8,2,7,3,6,4,5,
{8}2b,2x,2b,2x,{16}8b,4,7,5,8,2,7,3,
8b-4[8:1],,,1,{8}8,2,3/4x,{16}6,5,{8}7,1,
{16}6/2b-6[8:1],,,8,{8}2,7,{16}6x,5,7,4,6,5,7,4,
6b-2[8:1],,,3,{8}6,4,{16}5/8x,7,6,5,4/8x,1,2,3,
4b/8-4[8:1],,,5,{8}8,1,{16}2,4,1,5,2,8,3,7,
4x-8[8:1],,,5,{8}4,6,7/1,{16}2,8,{8}3,7,
{16}2x/6x-2[8:1],,,4,{8}6,3,{16}2x,8,3,7,1,5,3,4,
2-6[8:1],,,7,{8}2,8,{16}1/4x,3,2,1,8/4x,5,6,7,
8x/4-8[8:1],,,7,{8}4,5,{16}7,1,6,2,8,4,7,5,
8b-4[8:1],,,1,{8}8,2,3/4x,{16}6,5,{8}7,1,
{16}6/2b-6[8:1],,,8,{8}2,7,{16}6x,5,7,4,6,5,7,4,
6-2[8:1],,,3,{8}6,4,{16}5/8x,7,6,5,4/8x,1,2,3,
4x/8-4[8:1],,,5,{8}8,1,{16}2,4,1,5,2,8,3,7,
4-8[8:1],,,5,{8}4,6,7/1,{16}2,8,{8}3,7,
{16}2/6-2[8:1],,,4,{8}6,3,{16}2x,1,3,8,2x,1,3x,7,
{24}1b,2,3,8/4,,,{8}7x/5x,{24}8b,7,6,{8}5/1,4x/2x,{24}8b/1b,2/7,6/3,5/4,{48},,,,{16}2x,
7,4x,5,1x,8,3x,6,{24}1,2,3,8x,7,6,2x,3,4,7x,6,5,
{1}1bqq5[2:3],
,4qq8[2:3],
,7<3[2:3],
,1>7[2:3],
{4},,,,8b/1b,
{8}3,4,1,8,2/7,6/3,
,6,5,7,1,8,2/7,6/3,
,4,5,4,8,4,7/5,6/5,
,5,4,5,1,5,2/4,3,
4/8,7,5,6,1,5,4/2,3/4,
,7,5,6,1,5,4/2,3/4,
,6,5,7,{16}1,2,3,4,8,7,6,5,
1,2,3,4,5,6,7,8,1/5,4,3,2,1,8,{8}7x/Cf,
E
